<?xml  version="1.0" encoding="UTF-8"?>
<!DOCTYPE svg PUBLIC "-//W3C//DTD SVG 1.0//EN" "http://www.w3.org/TR/2001/REC-SVG-20010904/DTD/svg10.dtd" >
<svg xmlns="http://www.w3.org/2000/svg" >
<metadata>
<version>1.0</version>
<id><![CDATA[HelveticaNeueW01 53 Ext]]></id>
<vendor>Monotype Imaging Inc.</vendor>
<credits>
<name>Fonts.com WebFonts</name>
<URL>http://webfonts.fonts.com</URL>
<role>Home of the Web fonts</role>
</credits>
<license>
<URL>http://webfonts.fonts.com/Legal</URL>
</license>
<copyright><![CDATA[Part of the digitally encoded machine readable outline data for producing the Typefaces provided is copyrighted © 2006 - 2008 Linotype GmbH, www.linotype.com. All rights reserved. This software is the property of Linotype GmbH, and may not be reproduced, used, displayed, modified, disclosed or transferred without the express written approval of Linotype GmbH.  The digitally encoded machine readable software for producing the Typefaces licensed to you is copyrighted (c) 1990 Adobe Systems. All Rights Reserved. This software is the property of Adobe Systems Incorporated and its licensors, and may not be reproduced, used, displayed, modified, disclosed or transferred without the express written approval of Adobe. Helvetica is a trademark of Linotype GmbH registered in the U.S. Patent and Trademark Office and may be registered in certain other jurisdictions. This typeface is original artwork of Linotype Design Studio. The design may be protected in certain jurisdictions.]]></copyright>
<trademark><![CDATA[Helvetica is a trademark of Linotype GmbH registered in the U.S. Patent and Trademark Office and may be registered in certain other jurisdictions.]]></trademark>
<licensee>
<name></name>
</licensee>
</metadata>
<defs >
<font horiz-adv-x="609" id="929a2d07-7af1-4552-aa8a-ea9a9622f0af">
<font-face font-family="" panose-1="2 11 6 5 2 2 2 2 2 4" ascent="987" descent="-220" units-per-em="1000" alphabetic="0">
</font-face>
<missing-glyph horiz-adv-x="0" />

<glyph unicode="&#xA;" />
<glyph unicode="&#xD;" horiz-adv-x="0" />
<glyph unicode=" " horiz-adv-x="334" />
<glyph unicode="!" horiz-adv-x="334" d="M111 527V714H223V527L196 188H138L111 527ZM105 116H229V0H105V116Z"  />
<glyph unicode="&quot;" horiz-adv-x="481" d="M103 714H187V445H103V714ZM294 714H378V445H294V714Z"  />
<glyph unicode="#" horiz-adv-x="668" d="M214 420H120V486H223L252 694H323L294 486H412L441 694H512L483 486H577V420H474L454 274H548V208H445L416 0H345L374 208H256L227 0H156L185 208H91V274H194L214 420ZM403 420H285L265 274H383L403 420Z"  />
<glyph unicode="$" horiz-adv-x="668" d="M353 68Q399 68 432 77T488 101T520 137T531 182Q531 231 491 260T353 303V68ZM305 626Q233 622 192 595T151 517Q151 472 190 444T305 407V626ZM305 312Q261 319 216 330T134 363T74 420T51 510Q51 564 74 602T133 664T214 699T305 710V799H353V710Q417 709 464 694T543 654T592 593T612 515H512Q505 570 464 596T353 626V401Q426 389 479 373T565 332T615 274T631 193Q631 137 607 98T544 33T455 -4T353 -16V-105H305V-16Q251 -16 203 -2T118 41T59 110T37 206H137Q138 187 145 165T171 122T222 86T305 68V312Z"  />
<glyph unicode="%" horiz-adv-x="1000" d="M657 710H741L344 -16H260L657 710ZM60 515Q60 558 71 593T104 655T159 695T239 710Q285 710 318 696T374 655T407 594T418 515Q418 472 407 437T374 375T319 335T239 320Q193 320 160 334T104 375T71 436T60 515ZM334 515Q334 578 310 611T239 644Q193 644 169 611T144 515Q144 451 168 419T239 386Q285 386 309 418T334 515ZM582 179Q582 222 593 257T626 319T681 359T761 374Q807 374 840 360T896 319T929 258T940 179Q940 136 929 101T896 39T841 -1T761 -16Q715 -16 682 -2T626 39T593 100T582 179ZM856 179Q856 242 832 275T761 308Q715 308 691 275T666 179Q666 115 690 83T761 50Q807 50 831 82T856 179Z"  />
<glyph unicode="&amp;" horiz-adv-x="815" d="M319 352Q277 334 251 316T209 279T188 240T182 198Q182 176 190 153T220 111T275 79T363 66Q417 66 465 81T546 139L319 352ZM278 558Q278 532 296 507T353 446Q410 469 433 497T456 553Q456 584 432 607T370 630Q322 630 300 608T278 558ZM612 81Q592 56 564 38T503 7T432 -12T358 -18Q277 -18 223 2T137 53T90 121T76 195Q76 262 119 317T262 408Q215 450 200 486T184 553Q184 625 231 669T369 714Q411 714 444 702T501 668T537 619T550 559Q550 538 543 516T520 471T478 429T412 393L601 218Q616 243 623 267T634 329H728Q726 287 714 244T669 155L837 0H698L612 81Z"  />
<glyph unicode="&apos;" horiz-adv-x="334" d="M125 714H209V445H125V714Z"  />
<glyph unicode="(" horiz-adv-x="407" d="M302 -190Q202 -85 152 25T102 262Q102 388 152 498T302 714H377Q342 678 311 630T255 523T217 398T202 262Q202 191 216 125T255 1T310 -105T377 -190H302Z"  />
<glyph unicode=")" horiz-adv-x="407" d="M30 -190Q64 -154 95 -105T151 1T190 125T205 262Q205 332 191 398T152 522T96 629T30 714H105Q205 609 255 499T305 262Q305 136 255 26T105 -190H30Z"  />
<glyph unicode="*" horiz-adv-x="463" d="M46 570L74 636L195 587V714H267V587L391 636L417 570L288 520L385 423L331 378L231 481L133 378L82 423L174 520L46 570Z"  />
<glyph unicode="+" horiz-adv-x="600" d="M258 506H342V295H553V211H342V0H258V211H47V295H258V506Z"  />
<glyph unicode="&#x2c;" horiz-adv-x="334" d="M105 116H229V14Q229 -16 222 -43T200 -93T162 -131T105 -153V-104Q135 -95 149 -73T165 0H105V116Z"  />
<glyph unicode="-" horiz-adv-x="481" d="M65 330H416V226H65V330Z"  />
<glyph unicode="." horiz-adv-x="334" d="M105 116H229V0H105V116Z"  />
<glyph unicode="/" horiz-adv-x="406" d="M312 732H406L94 -18H0L312 732Z"  />
<glyph unicode="0" horiz-adv-x="668" d="M517 347Q517 368 516 396T508 456T490 517T458 572T407 611T334 626Q291 626 261 611T211 572T179 518T161 456T153 397T151 347Q151 326 152 298T160 238T178 177T210 122T261 83T334 68Q377 68 407 83T457 122T489 176T507 238T515 297T517 347ZM45 347Q45 422 59 488T107 603T196 681T334 710Q416 710 471 682T561 604T609 488T623 347Q623 272 609 206T561 91T472 13T334 -16Q251 -16 196 12T107 90T59 206T45 347Z"  />
<glyph unicode="1" horiz-adv-x="444" d="M199 505H-10V583H14Q81 583 121 597T183 631T212 673T222 714H305V0H199V505Z"  />
<glyph unicode="2" horiz-adv-x="668" d="M46 459Q46 514 62 560T112 639T197 691T321 710Q388 710 437 693T519 646T567 576T583 487Q583 426 558 384T492 312T403 258T307 212T221 160T162 92H583V0H33Q38 81 73 135T157 226T263 290T366 344T445 404T477 488Q477 525 465 551T433 594T385 618T327 626Q280 626 247 614T191 579T158 527T146 459H46Z"  />
<glyph unicode="3" horiz-adv-x="668" d="M256 410Q261 409 267 409T280 409H323Q392 409 425 436T459 511Q459 544 446 566T412 601T363 620T307 626Q226 626 189 588T147 480H47Q50 540 70 583T125 654T207 696T310 710Q377 710 425 694T505 652T550 591T565 519Q565 471 540 431T461 376V374Q521 363 558 319T596 207Q596 162 580 122T531 51T447 2T324 -16Q308 -16 280 -15T218 -8T152 13T91 54T47 120T29 220H129Q131 176 145 147T184 100T242 75T315 68Q400 68 445 104T490 200Q490 230 477 253T441 293T386 317T315 325Q288 325 276 324T256 323V410Z"  />
<glyph unicode="4" horiz-adv-x="668" d="M401 169H36V261L413 714H501V253H623V169H501V0H401V169ZM401 574H399L136 253H401V574Z"  />
<glyph unicode="5" horiz-adv-x="668" d="M130 694H557V602H205L171 413Q245 463 342 463Q386 463 433 452T520 415T584 343T609 231Q609 175 589 130T531 52T439 2T317 -16Q256 -16 207 -1T122 42T66 106T44 186H147Q163 122 204 95T325 68Q358 68 390 75T447 101T487 149T503 227Q503 267 490 295T452 342T396 370T328 379Q280 379 236 365T162 313L66 319L130 694Z"  />
<glyph unicode="6" horiz-adv-x="668" d="M504 530Q500 554 488 572T456 602T414 620T365 626Q322 626 286 616T221 577T176 499T154 372H156Q166 389 185 405T230 435T289 456T360 464Q405 464 452 453T539 414T603 340T628 226Q628 187 613 144T565 66T479 7T351 -16Q271 -16 215 7T123 76T71 185T54 333Q54 424 70 487T114 592T176 658T245 693T313 707T370 710Q401 710 439 703T511 675T571 619T604 530H504ZM522 224Q522 256 512 284T480 334T425 367T347 380Q301 380 268 368T214 334T182 285T171 224Q171 192 181 164T213 114T268 81T347 68Q392 68 425 80T479 114T511 163T522 224Z"  />
<glyph unicode="7" horiz-adv-x="593" d="M17 694H556V606Q500 535 454 465T370 322T304 169T256 0H145Q166 82 198 163T270 320T357 466T457 596H17V694Z"  />
<glyph unicode="8" horiz-adv-x="668" d="M515 201Q515 228 505 252T474 294T418 323T334 334Q285 334 251 323T195 294T163 252T153 201Q153 174 163 150T194 108T250 79T334 68Q383 68 417 79T473 108T505 150T515 201ZM484 522Q484 541 476 559T449 593T402 617T335 626Q296 626 268 617T221 593T194 560T185 522Q185 502 194 484T221 451T267 427T335 418Q374 418 402 427T448 450T475 483T484 522ZM47 206Q47 249 64 280T104 333T151 365T191 379V381Q128 404 104 440T79 527Q79 615 146 662T335 710Q456 710 523 663T590 527Q590 476 563 439T479 381V379Q542 368 581 323T621 206Q621 173 609 134T566 62T478 7T334 -16Q246 -16 190 6T103 62T59 134T47 206Z"  />
<glyph unicode="9" horiz-adv-x="668" d="M164 164Q168 140 180 122T212 92T254 74T303 68Q346 68 382 78T446 117T491 195T514 322H512Q502 305 483 289T438 259T378 238T308 230Q263 230 216 241T129 280T65 354T40 468Q40 507 55 550T103 628T189 687T317 710Q396 710 452 687T545 618T597 508T614 361Q614 270 598 207T554 102T492 36T423 1T355 -13T298 -16Q266 -16 229 -9T157 19T97 75T64 164H164ZM497 470Q497 502 487 530T455 580T400 613T321 626Q276 626 243 614T189 580T157 531T146 470Q146 438 156 410T188 360T243 327T321 314Q367 314 400 326T454 360T486 409T497 470Z"  />
<glyph unicode=":" horiz-adv-x="334" d="M105 116H229V0H105V116ZM105 515H229V399H105V515Z"  />
<glyph unicode=";" horiz-adv-x="334" d="M105 515H229V399H105V515ZM105 116H229V14Q229 -16 222 -43T200 -93T162 -131T105 -153V-104Q135 -95 149 -73T165 0H105V116Z"  />
<glyph unicode="&lt;" horiz-adv-x="600" d="M47 289L553 515V431L150 253L553 75V-9L47 217V289Z"  />
<glyph unicode="=" horiz-adv-x="600" d="M47 191H553V107H47V191ZM47 399H553V315H47V399Z"  />
<glyph unicode="&gt;" horiz-adv-x="600" d="M47 431V515L553 289V217L47 -9V75L450 253L47 431Z"  />
<glyph unicode="?" horiz-adv-x="668" d="M244 116H368V0H244V116ZM58 492Q61 565 88 611T156 685T242 722T331 732Q382 732 427 719T507 678T562 611T583 516Q583 470 566 437T524 379T468 333T413 291T370 246T353 188H259Q259 237 275 270T315 328T368 371T420 410T461 455T477 517Q477 552 465 577T433 617T385 640T327 648Q254 648 208 608T158 492H58Z"  />
<glyph unicode="@" horiz-adv-x="800" d="M550 551H622L546 278Q543 266 539 253T535 229Q535 206 558 206Q583 206 608 223T654 268T686 334T699 411Q699 472 677 520T616 602T526 654T416 672Q347 672 290 647T193 579T130 478T107 354Q107 287 131 230T197 131T298 66T425 42Q494 42 555 71T658 152H731Q680 71 599 27T421 -18Q340 -18 270 11T147 90T65 209T35 358Q35 437 65 505T146 623T267 703T416 732Q486 732 549 710T661 647T737 550T765 424Q765 353 739 299T674 209T594 154T518 135Q494 135 477 149T457 194H455Q434 171 404 153T339 135Q307 135 280 148T233 183T202 235T191 298Q191 347 207 395T252 482T323 543T415 567Q452 567 481 550T531 492L550 551ZM501 398Q501 417 495 435T477 466T451 487T419 495Q387 495 361 477T316 431T286 370T275 307Q275 262 298 235T359 207Q390 207 416 226T461 273T490 335T501 398Z"  />
<glyph unicode="A" horiz-adv-x="759" d="M551 208H201L110 0H-4L319 714H440L763 0H642L551 208ZM375 616L241 300H512L375 616Z"  />
<glyph unicode="B" horiz-adv-x="778" d="M470 92Q514 92 543 102T589 130T612 168T619 213Q619 234 613 254T590 291T546 317T479 327H183V92H470ZM472 419Q532 419 560 447T588 519Q588 568 560 595T466 622H183V419H472ZM77 714H474Q588 714 641 667T694 535Q694 502 686 478T664 435T631 405T590 384V382Q653 368 689 326T725 206Q725 168 712 131T670 65T600 18T499 0H77V714Z"  />
<glyph unicode="C" horiz-adv-x="815" d="M664 457Q658 494 640 527T592 586T519 625T420 640Q357 640 306 622T219 568T164 476T144 348Q144 297 158 248T205 161T288 98T414 74Q461 74 501 85T574 121T629 182T664 273H770Q764 214 736 161T662 68T552 5T413 -18Q345 -18 278 2T158 66T72 183T38 359Q38 437 62 505T133 623T250 703T412 732Q466 732 526 719T638 675T726 590T770 457H664Z"  />
<glyph unicode="D" horiz-adv-x="796" d="M440 92Q505 92 545 117T608 181T637 268T645 365Q645 412 636 458T602 540T533 599T420 622H183V92H440ZM77 714H439Q519 714 578 689T675 618T732 509T751 367Q751 292 734 226T680 109T585 30T445 0H77V714Z"  />
<glyph unicode="E" horiz-adv-x="704" d="M77 714H651V622H183V415H637V323H183V92H661V0H77V714Z"  />
<glyph unicode="F" horiz-adv-x="648" d="M77 714H630V622H183V411H609V319H183V0H77V714Z"  />
<glyph unicode="G" horiz-adv-x="870" d="M468 385H796V0H720L702 102Q684 81 661 60T604 22T528 -7T428 -18Q321 -18 249 16T132 104T70 222T51 345Q51 448 83 521T168 642T288 710T425 732Q480 732 536 722T642 684T729 610T784 489H672Q647 564 590 602T430 640Q359 640 308 617T223 554T173 463T157 354Q157 278 179 225T240 139T328 90T435 74Q493 74 540 90T622 136T677 205T702 293H468V385Z"  />
<glyph unicode="H" horiz-adv-x="852" d="M669 336H183V0H77V714H183V428H669V714H775V0H669V336Z"  />
<glyph unicode="I" horiz-adv-x="278" d="M86 714H192V0H86V714Z"  />
<glyph unicode="J" horiz-adv-x="574" d="M123 243V209Q123 137 160 102T264 66Q330 66 363 102T396 208V714H502V230Q502 160 484 113T435 36T360 -5T266 -18Q177 -18 128 9T55 77T28 163T23 243H123Z"  />
<glyph unicode="K" horiz-adv-x="759" d="M317 348L187 233V0H81V714H187V355L586 714H736L397 418L755 0H609L317 348Z"  />
<glyph unicode="L" horiz-adv-x="630" d="M81 714H187V92H621V0H81V714Z"  />
<glyph unicode="M" horiz-adv-x="1019" d="M795 714H942V0H836V592H834L556 0H462L185 580H183V0H77V714H226L509 122L795 714Z"  />
<glyph unicode="N" horiz-adv-x="852" d="M189 568H187V0H81V714H204L663 146H665V714H771V0H648L189 568Z"  />
<glyph unicode="O" horiz-adv-x="870" d="M726 357Q726 428 704 481T642 569T549 622T435 640Q374 640 321 623T229 570T167 481T144 357Q144 286 166 233T228 145T321 92T435 74Q496 74 549 91T641 144T703 233T726 357ZM38 357Q38 426 59 493T128 613T251 699T435 732Q543 732 618 699T741 613T810 493T832 357Q832 288 811 221T742 101T619 15T435 -18Q327 -18 252 15T129 101T60 221T38 357Z"  />
<glyph unicode="P" horiz-adv-x="722" d="M442 378Q481 378 508 388T551 415T575 456T582 507Q582 558 552 590T461 622H187V378H442ZM81 714H449Q567 714 627 662T688 509Q688 459 673 418T629 347T556 302T456 286H187V0H81V714Z"  />
<glyph unicode="Q" horiz-adv-x="870" d="M475 152L530 219L630 135Q675 170 700 225T726 357Q726 428 704 481T642 569T549 622T435 640Q374 640 321 623T229 570T167 481T144 357Q144 286 166 233T228 145T321 92T435 74Q496 74 547 91L475 152ZM630 21Q590 2 543 -8T435 -18Q327 -18 252 15T129 101T60 221T38 357Q38 426 59 493T128 613T251 699T435 732Q543 732 618 699T741 613T810 493T832 357Q832 317 825 277T803 200T765 130T708 70L801 -8L745 -77L630 21Z"  />
<glyph unicode="R" horiz-adv-x="759" d="M483 395Q522 395 547 405T586 432T606 469T612 508Q612 559 581 590T486 622H187V395H483ZM81 714H523Q577 714 614 697T674 653T707 592T718 524Q718 458 688 413T598 348V346Q646 339 672 298T702 194Q704 144 706 112T712 58T721 23T736 0H624Q618 7 615 17T609 43T605 81T602 136Q599 184 590 216T563 267T522 295T464 303H187V0H81V714Z"  />
<glyph unicode="S" horiz-adv-x="667" d="M122 235Q123 187 144 156T197 107T270 81T352 74Q394 74 429 82T490 105T530 143T545 195Q545 244 510 267T412 301L250 328Q218 333 181 343T112 374T59 429T38 515Q38 564 57 604T112 672T202 716T324 732Q378 732 430 721T525 685T596 616T628 508H522Q519 529 510 552T477 594T414 627T310 640Q281 640 252 634T198 613T159 577T144 523Q144 490 169 465T261 429L436 399Q457 395 493 387T564 359T625 305T651 216Q651 148 624 103T552 31T453 -7T344 -18Q284 -18 225 -6T120 35T45 112T16 235H122Z"  />
<glyph unicode="T" horiz-adv-x="648" d="M271 622H1V714H647V622H377V0H271V622Z"  />
<glyph unicode="U" horiz-adv-x="796" d="M75 714H181V257Q181 209 196 174T240 117T309 85T398 74Q447 74 487 84T555 117T599 174T615 257V714H721V270Q721 -18 398 -18Q75 -18 75 270V714Z"  />
<glyph unicode="V" horiz-adv-x="722" d="M619 714H733L420 0H307L-11 714H109L366 110L619 714Z"  />
<glyph unicode="W" horiz-adv-x="1093" d="M544 592H542L345 0H228L-7 714H108L291 134H293L484 714H610L806 134H808L990 714H1100L858 0H742L544 592Z"  />
<glyph unicode="X" horiz-adv-x="704" d="M564 714H695L420 366L703 0H564L348 289L133 0H1L283 366L15 714H150L354 439L564 714Z"  />
<glyph unicode="Y" horiz-adv-x="722" d="M599 714H728L413 299V0H307V294L-6 714H129L362 389L599 714Z"  />
<glyph unicode="Z" horiz-adv-x="685" d="M14 95L524 622H50V714H663V622L151 92H671V0H14V95Z"  />
<glyph unicode="[" horiz-adv-x="407" d="M117 714H346V636H211V-112H346V-190H117V714Z"  />
<glyph unicode="\" horiz-adv-x="406" d="M0 732H94L406 -18H312L0 732Z"  />
<glyph unicode="]" horiz-adv-x="407" d="M196 636H61V714H290V-190H61V-112H196V636Z"  />
<glyph unicode="^" horiz-adv-x="600" d="M300 610L141 280H57L261 694H337L543 280H459L300 610Z"  />
<glyph unicode="_" horiz-adv-x="500" d="M0 -75H500V-125H0V-75Z"  />
<glyph unicode="`" horiz-adv-x="222" d="M-40 740H85L171 600H91L-40 740Z"  />
<glyph unicode="a" horiz-adv-x="648" d="M467 274Q456 261 434 255T369 243L256 229Q196 221 167 203T137 143Q137 106 170 83T259 60Q301 60 339 70T405 100T450 147T467 207V274ZM60 360Q70 458 136 500T320 542Q360 542 402 536T480 514T538 468T561 393V111Q561 66 606 66Q614 66 623 67T641 70V0Q623 -3 602 -4T563 -6Q525 -6 502 8T473 67Q458 47 433 31T378 4T315 -12T250 -18Q185 -18 144 -3T79 35T46 86T37 140Q37 176 48 203T86 250T156 283T262 303L376 315Q418 319 442 331T467 378Q467 405 455 422T422 448T374 460T316 464Q284 464 255 459T204 442T169 410T154 360H60Z"  />
<glyph unicode="b" horiz-adv-x="685" d="M541 259Q541 350 489 401T349 452Q305 452 270 439T209 401T169 340T155 259Q155 221 166 187T201 125T261 82T349 66Q400 66 436 82T495 125T530 186T541 259ZM61 720H161V445H163Q178 469 200 486T248 514T303 530T362 536Q421 536 473 518T563 464T624 377T647 259Q647 193 625 142T564 55T473 1T362 -18Q333 -18 304 -13T249 4T200 30T163 67H161V0H61V720Z"  />
<glyph unicode="c" horiz-adv-x="630" d="M596 192Q580 133 555 93T495 28T417 -7T323 -18Q245 -18 191 6T103 69T54 158T38 259Q38 317 56 368T109 458T198 519T322 542Q374 542 420 530T503 494T562 434T594 349H488Q479 400 439 429T329 458Q281 458 246 443T189 402T155 340T144 262Q144 220 155 184T188 122T246 81T329 66Q398 66 435 96T490 192H596Z"  />
<glyph unicode="d" horiz-adv-x="685" d="M144 259Q144 221 155 187T189 125T249 82T336 66Q387 66 423 82T484 125T519 186T530 259Q530 304 516 340T477 400T415 438T336 452Q248 452 196 401T144 259ZM524 67H522Q507 46 485 31T437 4T381 -12T323 -18Q264 -18 212 0T122 54T61 141T38 259Q38 325 60 376T121 463T212 517T323 536Q352 536 381 531T436 515T485 488T522 451H524V720H624V0H524V67Z"  />
<glyph unicode="e" horiz-adv-x="667" d="M520 310Q508 382 458 420T337 458Q302 458 271 448T214 419T171 373T147 310H520ZM144 232Q147 191 165 160T210 108T270 77T337 66Q358 66 382 70T430 84T473 113T506 159H612Q593 112 563 79T497 24T421 -8T342 -18Q265 -18 208 4T114 65T57 154T38 262Q38 319 57 369T113 458T208 519T342 542Q394 542 444 526T535 475T601 383T626 245V232H144Z"  />
<glyph unicode="f" horiz-adv-x="333" d="M92 602Q92 675 134 703T253 732Q276 732 297 729T340 724V646Q326 647 312 647T284 648Q235 648 214 639T192 597V524H340V446H192V0H92V446H-15V524H92V602Z"  />
<glyph unicode="g" horiz-adv-x="685" d="M530 264Q530 304 517 338T479 398T418 438T337 452Q291 452 255 438T195 399T157 339T144 264Q144 223 157 190T194 131T255 93T337 79Q382 79 418 92T479 131T517 189T530 264ZM530 524H630V44Q630 -27 613 -77T558 -158T464 -205T325 -220Q283 -220 239 -215T159 -193T96 -144T61 -57H161Q175 -108 219 -125T335 -142Q388 -142 425 -130T485 -96T519 -45T530 16V92H528Q507 62 482 43T431 14T378 -1T325 -5Q272 -5 221 10T129 57T63 141T38 265Q38 338 63 389T128 473T220 521T324 536Q390 536 444 514T528 447H530V524Z"  />
<glyph unicode="h" horiz-adv-x="649" d="M61 720H161V445H163Q200 500 255 521T368 542Q415 542 455 532T525 499T571 441T588 357V0H488V337Q488 395 451 426T333 458Q299 458 268 448T213 419T175 370T161 302V0H61V720Z"  />
<glyph unicode="i" horiz-adv-x="222" d="M61 720H161V610H61V720ZM61 524H161V0H61V524Z"  />
<glyph unicode="j" horiz-adv-x="222" d="M61 720H161V610H61V720ZM-52 -116Q-47 -117 -43 -117T-33 -118H-15Q27 -118 44 -103T61 -55V524H161V-32Q161 -77 153 -109T126 -162T75 -192T-5 -202Q-16 -202 -27 -202T-52 -200V-116Z"  />
<glyph unicode="k" horiz-adv-x="593" d="M435 524H587L341 327L606 0H470L261 262L169 189V0H69V720H169V300L435 524Z"  />
<glyph unicode="l" horiz-adv-x="222" d="M61 720H161V0H61V720Z"  />
<glyph unicode="m" horiz-adv-x="1018" d="M857 333Q857 369 847 393T819 431T778 452T731 458Q697 458 666 450T611 424T573 381T559 317V0H459V333Q459 369 449 393T421 431T380 452T333 458Q299 458 268 448T213 419T175 370T161 302V0H61V524H161V445H163Q200 500 255 521T368 542Q419 542 466 520T546 445Q582 490 632 516T758 542Q778 542 811 536T877 510T933 454T957 357V0H857V333Z"  />
<glyph unicode="n" horiz-adv-x="649" d="M61 524H161V445H163Q200 500 255 521T368 542Q415 542 455 532T525 499T571 441T588 357V0H488V337Q488 395 451 426T333 458Q299 458 268 448T213 419T175 370T161 302V0H61V524Z"  />
<glyph unicode="o" horiz-adv-x="684" d="M540 262Q540 298 530 333T496 395T434 440T342 458Q288 458 250 441T189 396T155 333T144 262Q144 226 154 191T188 129T250 84T342 66Q396 66 434 83T495 128T529 191T540 262ZM38 262Q38 319 57 369T113 458T208 519T342 542Q418 542 475 520T570 459T627 370T646 262Q646 205 627 155T571 66T476 5T342 -18Q265 -18 208 4T114 65T57 154T38 262Z"  />
<glyph unicode="p" horiz-adv-x="685" d="M541 259Q541 296 530 331T496 393T436 436T349 452Q298 452 262 436T201 393T166 331T155 259Q155 214 169 178T208 118T269 80T349 66Q437 66 489 117T541 259ZM61 524H161V451H163Q178 472 200 487T248 514T304 530T362 536Q421 536 473 518T563 464T624 377T647 259Q647 193 625 142T564 55T473 1T362 -18Q333 -18 304 -13T248 3T200 30T163 67H161V-202H61V524Z"  />
<glyph unicode="q" horiz-adv-x="685" d="M144 259Q144 168 196 117T336 66Q379 66 415 79T476 117T516 178T530 259Q530 296 519 331T484 393T424 436T336 452Q285 452 249 436T190 393T155 331T144 259ZM524 524H624V-202H524V73H522Q507 49 485 32T437 4T381 -12T323 -18Q264 -18 212 0T122 54T61 141T38 259Q38 325 60 376T121 463T212 517T323 536Q352 536 381 531T436 514T485 488T522 451H524V524Z"  />
<glyph unicode="r" horiz-adv-x="407" d="M61 524H161V428H163Q198 490 245 516T343 542Q362 542 374 541T400 536V428Q381 433 365 435T329 438Q254 438 208 395T161 266V0H61V524Z"  />
<glyph unicode="s" horiz-adv-x="593" d="M131 165Q131 147 139 129T166 95T216 70T296 60Q344 60 375 67T424 87T449 113T456 142Q456 170 437 187T357 212L192 234Q163 238 138 249T93 277T62 318T50 373Q50 454 113 498T289 542Q353 542 400 529T478 493T525 437T545 366H445Q443 406 405 435T288 464Q264 464 240 460T195 447T163 423T150 384Q150 358 167 342T237 319L379 300Q478 286 520 251T562 161Q562 115 544 82T491 26T408 -7T299 -18Q254 -18 208 -11T124 16T61 72T31 165H131Z"  />
<glyph unicode="t" horiz-adv-x="370" d="M105 685H205V524H355V446H205V123Q205 91 226 79T286 66Q303 66 320 68T355 73V-11Q329 -16 302 -17T243 -18Q168 -18 137 15T105 106V446H-3V524H105V685Z"  />
<glyph unicode="u" horiz-adv-x="649" d="M588 0H488V79H486Q449 24 394 3T281 -18Q234 -18 194 -8T124 25T78 83T61 167V524H161V187Q161 129 198 98T316 66Q350 66 381 76T436 105T474 154T488 222V524H588V0Z"  />
<glyph unicode="v" horiz-adv-x="574" d="M467 524H579L343 0H233L-5 524H110L290 110L467 524Z"  />
<glyph unicode="w" horiz-adv-x="907" d="M792 524H898L691 0H582L451 400H449L318 0H212L9 524H120L265 124H267L397 524H507L640 124H642L792 524Z"  />
<glyph unicode="x" horiz-adv-x="593" d="M449 524H582L362 271L598 0H458L293 199L127 0H-5L228 271L12 524H148L297 344L449 524Z"  />
<glyph unicode="y" horiz-adv-x="574" d="M467 524H579L305 -90Q286 -132 268 -157T230 -197T184 -215T123 -220Q104 -220 86 -219T47 -216V-132Q61 -133 74 -134T105 -136Q128 -136 143 -133T170 -121T192 -97T214 -56L237 -8L-5 524H110L290 110L467 524Z"  />
<glyph unicode="z" horiz-adv-x="593" d="M27 82L413 440H46V524H551V446L160 84H566V0H27V82Z"  />
<glyph unicode="{" horiz-adv-x="333" d="M47 295Q63 296 78 305T104 329T123 365T130 413V583Q130 615 140 639T165 680T200 705T238 714H310V654H262Q247 654 238 647T224 627T216 600T214 568V397Q214 362 204 338T179 298T150 274T125 263V261Q134 259 149 251T179 227T203 187T214 127V-44Q214 -60 216 -75T223 -103T238 -122T262 -130H310V-190H238Q219 -190 200 -182T166 -157T140 -116T130 -59V111Q130 137 123 158T105 195T78 219T47 229V295Z"  />
<glyph unicode="|" horiz-adv-x="222" d="M69 732H153V-18H69V732Z"  />
<glyph unicode="}" horiz-adv-x="333" d="M23 -130H71Q86 -130 95 -123T109 -103T117 -76T119 -44V127Q119 162 129 186T154 226T183 250T208 261V263Q199 265 184 273T154 297T130 337T119 397V568Q119 584 117 599T110 627T95 646T71 654H23V714H95Q114 714 133 706T167 681T193 640T203 583V413Q203 387 210 366T228 329T255 305T286 295V229Q270 228 255 219T229 195T210 159T203 111V-59Q203 -91 193 -115T168 -156T133 -181T95 -190H23V-130Z"  />
<glyph unicode="~" horiz-adv-x="600" d="M69 239Q95 288 126 306T194 325Q223 325 252 314T310 289Q339 275 364 264T407 253Q451 253 495 330L531 267Q505 218 474 200T406 181Q377 181 348 192T290 217Q261 231 236 242T193 253Q149 253 105 176L69 239Z"  />
<glyph unicode="&#xA0;" horiz-adv-x="334" />
<glyph unicode="&#xA1;" horiz-adv-x="334" d="M111 -3L138 336H196L223 -3V-190H111V-3ZM105 524H229V408H105V524Z"  />
<glyph unicode="&#xA2;" horiz-adv-x="668" d="M311 -16Q241 -12 193 13T114 77T69 162T55 259Q55 315 71 364T119 451T199 512T311 541V633H365V541Q462 535 528 488T611 349H505Q497 397 463 425T365 457V68Q425 72 458 102T507 192H613Q598 137 575 98T521 35T450 -2T365 -16V-109H311V-16ZM311 457Q233 447 197 394T161 262Q161 223 170 190T197 132T244 90T311 68V457Z"  />
<glyph unicode="&#xA3;" horiz-adv-x="668" d="M42 371H105Q90 394 82 425T73 490Q73 530 89 569T140 639T227 690T353 710Q486 710 556 649T626 479H520Q518 510 507 536T475 583T422 614T346 626Q268 626 224 585T179 475Q179 458 185 429T211 371H422V311H234Q242 294 247 275T252 236Q252 218 247 198T230 159T204 122T167 92L169 90Q215 108 264 108Q288 108 316 103T371 92T421 81T458 76Q490 76 526 89T598 127L626 39Q584 9 544 -3T462 -16Q439 -16 413 -10T356 4Q326 12 294 18T229 24Q180 24 144 13T88 -16L42 67Q96 98 124 136T152 228Q152 247 146 269T128 311H42V371Z"  />
<glyph unicode="&#xA4;" horiz-adv-x="668" d="M137 197Q113 229 100 267T86 347Q86 390 99 428T137 497L82 552L130 600L185 545Q216 568 254 581T334 595Q376 595 414 582T483 545L538 600L586 552L531 496Q555 465 568 427T582 347Q582 305 569 267T531 198L586 142L538 94L482 150Q419 99 334 99Q292 99 254 112T185 150L130 94L82 142L137 197ZM498 347Q498 382 485 413T450 467T398 503T334 517Q300 517 270 504T218 467T183 413T170 347Q170 312 183 281T218 227T270 191T334 177Q368 177 398 190T450 227T485 281T498 347Z"  />
<glyph unicode="&#xA5;" horiz-adv-x="668" d="M530 694H659L435 351H577V291H396L387 277V204H577V144H387V0H281V144H91V204H281V277L272 291H91V351H233L11 694H146L336 369L530 694Z"  />
<glyph unicode="&#xA6;" horiz-adv-x="222" d="M69 732H153V452H69V732ZM69 262H153V-18H69V262Z"  />
<glyph unicode="&#xA7;" horiz-adv-x="668" d="M462 136Q495 146 513 169T531 222Q531 254 509 277T435 322L203 416Q173 405 155 382T137 326Q137 311 142 298T162 272T201 246T265 216L462 136ZM187 5Q190 -28 203 -49T237 -83T284 -101T339 -106Q405 -106 438 -84T471 -23Q471 6 452 26T381 67L205 138Q154 159 122 179T73 221T49 267T43 321Q43 340 49 360T69 398T102 432T149 456Q123 475 112 503T100 561Q100 602 118 634T167 687T240 720T330 732Q377 732 419 721T492 686T542 628T560 547H460Q454 648 325 648Q258 648 229 627T200 568Q200 521 259 497L494 402Q519 391 543 377T585 344T614 301T625 245Q625 224 620 203T602 163T570 126T520 97Q546 80 558 51T571 -13Q571 -51 556 -83T511 -139T439 -176T341 -190Q263 -190 214 -171T137 -122T98 -59T87 5H187Z"  />
<glyph unicode="&#xA8;" horiz-adv-x="222" d="M181 722H281V618H181V722ZM-59 722H41V618H-59V722Z"  />
<glyph unicode="&#xA9;" horiz-adv-x="800" d="M595 292Q582 217 532 175T414 133Q366 133 328 150T261 198T218 270T203 359Q203 407 217 448T259 520T324 568T411 585Q445 585 476 575T531 545T571 496T592 430H511Q503 465 476 486T409 507Q349 507 318 465T287 359Q287 328 295 301T320 254T360 223T413 211Q451 211 478 232T511 292H595ZM691 357Q691 421 668 475T606 569T513 631T400 654Q339 654 286 632T194 569T132 475T109 357Q109 293 131 239T193 145T286 83T400 60Q460 60 513 82T605 144T668 238T691 357ZM25 357Q25 441 55 510T138 628T258 705T400 732Q474 732 542 705T661 629T744 510T775 357Q775 273 744 204T662 86T542 9T400 -18Q326 -18 258 9T138 85T56 204T25 357Z"  />
<glyph unicode="&#xAA;" horiz-adv-x="421" d="M292 548H290Q285 540 270 537T224 528L160 519Q128 514 109 505T90 476Q90 456 111 444T164 432Q189 432 212 438T253 455T281 483T292 520V548ZM33 599Q39 661 82 685T204 710Q231 710 259 707T311 693T349 667T364 623V461Q364 437 393 437Q403 437 411 439V394Q395 393 381 391T360 389Q335 389 320 398T301 431Q291 418 275 408T240 392T199 382T156 378Q114 378 87 387T45 410T24 441T18 476Q18 518 49 542T160 574L236 581Q264 583 278 589T292 612Q292 626 285 634T265 648T237 654T202 656Q161 656 131 645T99 599H33Z"  />
<glyph unicode="&#xAB;" horiz-adv-x="556" d="M77 330L257 463V362L138 278L257 194V93L77 226V330ZM299 330L479 463V362L360 278L479 194V93L299 226V330Z"  />
<glyph unicode="&#xAC;" horiz-adv-x="600" d="M469 315H47V399H553V107H469V315Z"  />
<glyph unicode="&#xAD;" horiz-adv-x="481" d="M65 330H416V226H65V330Z"  />
<glyph unicode="&#xAE;" horiz-adv-x="800" d="M399 388Q419 388 437 389T470 398T492 417T500 453Q500 472 491 483T469 501T438 509T405 511H322V388H399ZM389 328H322V143H250V571H417Q498 571 538 543T578 448Q578 419 569 398T545 363T508 342T462 331L585 143H501L389 328ZM691 357Q691 421 668 475T606 569T513 631T400 654Q339 654 286 632T194 569T132 475T109 357Q109 293 131 239T193 145T286 83T400 60Q460 60 513 82T605 144T668 238T691 357ZM25 357Q25 441 55 510T138 628T258 705T400 732Q474 732 542 705T661 629T744 510T775 357Q775 273 744 204T662 86T542 9T400 -18Q326 -18 258 9T138 85T56 204T25 357Z"  />
<glyph unicode="&#xAF;" horiz-adv-x="222" d="M-85 709H307V631H-85V709Z"  />
<glyph unicode="&#xB0;" horiz-adv-x="400" d="M289 567Q289 583 282 599T261 628T232 648T200 656Q183 656 168 649T139 628T119 599T111 567Q111 550 118 535T139 506T167 486T200 478Q216 478 232 485T261 506T281 534T289 567ZM57 567Q57 597 68 623T98 668T144 699T200 710Q230 710 256 699T301 669T332 623T343 567Q343 537 332 511T302 466T256 435T200 424Q170 424 144 435T99 465T68 511T57 567Z"  />
<glyph unicode="&#xB1;" horiz-adv-x="600" d="M47 84H553V0H47V84ZM258 506H342V354H553V270H342V118H258V270H47V354H258V506Z"  />
<glyph unicode="&#xB2;" horiz-adv-x="434" d="M38 560Q38 626 80 668T216 710Q303 710 345 672T387 577Q387 542 373 517T337 474T288 441T233 415T183 389T145 358H387V286H24Q26 335 47 367T100 421T166 460T232 492T283 528T303 578Q303 612 276 628T215 644Q165 644 142 619T116 560H38Z"  />
<glyph unicode="&#xB3;" horiz-adv-x="434" d="M172 535Q176 534 187 534H215Q254 534 271 550T289 591Q289 607 282 617T263 634T236 642T205 644Q155 644 136 626T114 572H36Q40 644 87 677T207 710Q250 710 281 701T333 675T363 638T373 595Q373 566 357 542T305 510V508Q343 502 368 475T393 415Q393 397 388 373T363 326T309 289T216 274Q200 274 168 276T104 291T48 334T24 416H102Q105 368 132 354T210 340Q261 340 285 357T309 404Q309 437 282 455T210 474Q193 474 185 474T172 473V535Z"  />
<glyph unicode="&#xB4;" horiz-adv-x="222" d="M137 740H262L131 600H51L137 740Z"  />
<glyph unicode="&#xB5;" horiz-adv-x="649" d="M61 524H161V187Q161 129 198 98T316 66Q350 66 381 76T436 105T474 154T488 222V524H588V0H488V79H486Q468 52 444 33T394 3T341 -13T286 -18Q248 -18 218 -9T161 23V-202H61V524Z"  />
<glyph unicode="&#xB6;" horiz-adv-x="600" d="M438 648H327V-172H243V344Q195 344 156 357T88 395T45 453T29 526Q29 576 46 612T93 670T167 703T262 714H522V-172H438V648Z"  />
<glyph unicode="&#xB7;" horiz-adv-x="334" d="M93 308Q93 339 114 360T167 382Q198 382 219 361T241 308Q241 277 220 256T167 234Q136 234 115 255T93 308Z"  />
<glyph unicode="&#xB8;" horiz-adv-x="222" d="M58 -82L108 0H159L125 -56Q140 -52 159 -52Q194 -52 221 -67T248 -117Q248 -140 238 -156T210 -183T171 -197T128 -202Q78 -202 22 -188L35 -141Q48 -146 69 -150T110 -154Q131 -154 147 -146T164 -123Q164 -113 155 -104T122 -94Q111 -94 99 -96T76 -101L58 -82Z"  />
<glyph unicode="&#xB9;" horiz-adv-x="289" d="M113 574H-8V634Q17 634 40 636T81 646T113 669T130 710H197V286H113V574Z"  />
<glyph unicode="&#xBA;" horiz-adv-x="445" d="M342 543Q342 561 336 579T315 614T277 640T222 650Q190 650 168 640T131 614T110 580T103 543Q103 526 109 508T130 474T167 448T222 438Q254 438 277 448T314 473T335 507T342 543ZM25 544Q25 578 37 608T74 660T135 696T222 710Q272 710 309 697T371 661T408 608T420 544Q420 511 408 481T371 428T309 392T222 378Q172 378 136 391T74 427T37 480T25 544Z"  />
<glyph unicode="&#xBB;" horiz-adv-x="556" d="M299 362V463L479 330V226L299 93V194L418 278L299 362ZM77 362V463L257 330V226L77 93V194L196 278L77 362Z"  />
<glyph unicode="&#xBC;" horiz-adv-x="1000" d="M594 710H678L281 -16H197L594 710ZM145 574H24V634Q49 634 72 636T113 646T145 669T162 710H229V286H145V574ZM803 322H801L658 159H803V322ZM803 93H571V156L815 424H881V159H953V93H881V0H803V93Z"  />
<glyph unicode="&#xBD;" horiz-adv-x="1000" d="M604 274Q604 340 646 382T782 424Q869 424 911 386T953 291Q953 256 939 231T903 188T854 155T799 129T749 103T711 72H953V0H590Q592 49 613 81T666 135T732 174T798 206T849 242T869 292Q869 326 842 342T781 358Q731 358 708 333T682 274H604ZM596 710H680L283 -16H199L596 710ZM145 574H24V634Q49 634 72 636T113 646T145 669T162 710H229V286H145V574Z"  />
<glyph unicode="&#xBE;" horiz-adv-x="1000" d="M662 710H746L349 -16H265L662 710ZM172 535Q176 534 187 534H215Q254 534 271 550T289 591Q289 607 282 617T263 634T236 642T205 644Q155 644 136 626T114 572H36Q40 644 87 677T207 710Q250 710 281 701T333 675T363 638T373 595Q373 566 357 542T305 510V508Q343 502 368 475T393 415Q393 397 388 373T363 326T309 289T216 274Q200 274 168 276T104 291T48 334T24 416H102Q105 368 132 354T210 340Q261 340 285 357T309 404Q309 437 282 455T210 474Q193 474 185 474T172 473V535ZM803 322H801L658 159H803V322ZM803 93H571V156L815 424H881V159H953V93H881V0H803V93Z"  />
<glyph unicode="&#xBF;" horiz-adv-x="668" d="M300 524H424V408H300V524ZM610 32Q607 -41 580 -87T512 -161T426 -198T337 -208Q286 -208 240 -195T160 -154T105 -87T85 8Q85 54 102 87T144 145T200 191T255 233T298 278T315 336H409Q409 287 393 254T353 196T300 153T248 114T207 69T191 7Q191 -28 203 -53T235 -93T283 -116T341 -124Q414 -124 460 -84T510 32H610Z"  />
<glyph unicode="&#xC0;" horiz-adv-x="759" d="M551 208H201L110 0H-4L319 714H440L763 0H642L551 208ZM375 616L241 300H512L375 616ZM225 910H350L436 770H356L225 910Z"  />
<glyph unicode="&#xC1;" horiz-adv-x="759" d="M551 208H201L110 0H-4L319 714H440L763 0H642L551 208ZM375 616L241 300H512L375 616ZM412 910H537L406 770H326L412 910Z"  />
<glyph unicode="&#xC2;" horiz-adv-x="759" d="M551 208H201L110 0H-4L319 714H440L763 0H642L551 208ZM375 616L241 300H512L375 616ZM379 858L293 770H196L326 910H432L562 770H465L379 858Z"  />
<glyph unicode="&#xC3;" horiz-adv-x="759" d="M551 208H201L110 0H-4L319 714H440L763 0H642L551 208ZM375 616L241 300H512L375 616ZM181 779Q186 831 215 866T295 902Q322 902 346 895T393 878Q414 869 434 863T472 857Q489 857 501 866T518 902H577Q572 850 543 815T463 779Q436 779 412 786T365 803Q344 812 324 818T286 824Q269 824 257 815T240 779H181Z"  />
<glyph unicode="&#xC4;" horiz-adv-x="759" d="M551 208H201L110 0H-4L319 714H440L763 0H642L551 208ZM375 616L241 300H512L375 616ZM451 892H551V788H451V892ZM211 892H311V788H211V892Z"  />
<glyph unicode="&#xC5;" horiz-adv-x="759" d="M551 208H201L110 0H-4L319 714H440L763 0H642L551 208ZM375 616L241 300H512L375 616ZM442 870Q442 895 423 914T379 933Q354 933 335 914T316 870Q316 845 335 826T379 807Q404 807 423 826T442 870ZM262 870Q262 894 271 915T296 953T333 978T379 987Q403 987 424 978T462 953T487 916T496 870Q496 846 487 825T462 787T425 762T379 753Q353 753 332 762T295 787T271 824T262 870Z"  />
<glyph unicode="&#xC6;" horiz-adv-x="1111" d="M526 208H217L87 0H-33L417 714H1063V622H626V415H1049V323H626V92H1068V0H526V208ZM526 622H476L274 300H526V622Z"  />
<glyph unicode="&#xC7;" horiz-adv-x="815" d="M329 -82L369 -16Q323 -12 278 2Q229 17 186 45T109 117T57 221T38 359Q38 437 62 505T133 623T250 703T412 732Q466 732 526 719T638 675T726 590T770 457H664Q658 494 640 527T592 586T519 625T420 640Q357 640 306 622T219 568T164 476T144 348Q144 297 158 248T205 161T288 98T414 74Q461 74 501 85T574 121T629 182T664 273H770Q761 183 704 112T552 5Q521 -6 488 -11T419 -18L396 -56Q411 -52 430 -52Q465 -52 492 -67T519 -117Q519 -140 509 -156T481 -183T442 -197T399 -202Q349 -202 293 -188L306 -141Q319 -146 340 -150T381 -154Q402 -154 418 -146T435 -123Q435 -113 426 -104T393 -94Q382 -94 370 -96T347 -101L329 -82Z"  />
<glyph unicode="&#xC8;" horiz-adv-x="704" d="M77 714H651V622H183V415H637V323H183V92H661V0H77V714ZM238 910H363L449 770H369L238 910Z"  />
<glyph unicode="&#xC9;" horiz-adv-x="704" d="M77 714H651V622H183V415H637V323H183V92H661V0H77V714ZM412 910H537L406 770H326L412 910Z"  />
<glyph unicode="&#xCA;" horiz-adv-x="704" d="M77 714H651V622H183V415H637V323H183V92H661V0H77V714ZM369 858L283 770H186L316 910H422L552 770H455L369 858Z"  />
<glyph unicode="&#xCB;" horiz-adv-x="704" d="M77 714H651V622H183V415H637V323H183V92H661V0H77V714ZM437 892H537V788H437V892ZM197 892H297V788H197V892Z"  />
<glyph unicode="&#xCC;" horiz-adv-x="278" d="M86 714H192V0H86V714ZM-23 910H102L188 770H108L-23 910Z"  />
<glyph unicode="&#xCD;" horiz-adv-x="278" d="M86 714H192V0H86V714ZM175 910H300L169 770H89L175 910Z"  />
<glyph unicode="&#xCE;" horiz-adv-x="278" d="M86 714H192V0H86V714ZM139 858L53 770H-44L86 910H192L322 770H225L139 858Z"  />
<glyph unicode="&#xCF;" horiz-adv-x="278" d="M86 714H192V0H86V714ZM209 892H309V788H209V892ZM-31 892H69V788H-31V892Z"  />
<glyph unicode="&#xD0;" horiz-adv-x="796" d="M413 419V347H183V92H440Q505 92 545 117T608 181T637 268T645 365Q645 412 636 458T602 540T533 599T420 622H183V419H413ZM77 714H439Q519 714 578 689T675 618T732 509T751 367Q751 292 734 226T680 109T585 30T445 0H77V347H7V419H77V714Z"  />
<glyph unicode="&#xD1;" horiz-adv-x="852" d="M189 568H187V0H81V714H204L663 146H665V714H771V0H648L189 568ZM233 779Q238 831 267 866T347 902Q374 902 398 895T445 878Q466 869 486 863T524 857Q541 857 553 866T570 902H629Q624 850 595 815T515 779Q488 779 464 786T417 803Q396 812 376 818T338 824Q321 824 309 815T292 779H233Z"  />
<glyph unicode="&#xD2;" horiz-adv-x="870" d="M726 357Q726 428 704 481T642 569T549 622T435 640Q374 640 321 623T229 570T167 481T144 357Q144 286 166 233T228 145T321 92T435 74Q496 74 549 91T641 144T703 233T726 357ZM38 357Q38 426 59 493T128 613T251 699T435 732Q543 732 618 699T741 613T810 493T832 357Q832 288 811 221T742 101T619 15T435 -18Q327 -18 252 15T129 101T60 221T38 357ZM302 910H427L513 770H433L302 910Z"  />
<glyph unicode="&#xD3;" horiz-adv-x="870" d="M726 357Q726 428 704 481T642 569T549 622T435 640Q374 640 321 623T229 570T167 481T144 357Q144 286 166 233T228 145T321 92T435 74Q496 74 549 91T641 144T703 233T726 357ZM38 357Q38 426 59 493T128 613T251 699T435 732Q543 732 618 699T741 613T810 493T832 357Q832 288 811 221T742 101T619 15T435 -18Q327 -18 252 15T129 101T60 221T38 357ZM479 910H604L473 770H393L479 910Z"  />
<glyph unicode="&#xD4;" horiz-adv-x="870" d="M726 357Q726 428 704 481T642 569T549 622T435 640Q374 640 321 623T229 570T167 481T144 357Q144 286 166 233T228 145T321 92T435 74Q496 74 549 91T641 144T703 233T726 357ZM38 357Q38 426 59 493T128 613T251 699T435 732Q543 732 618 699T741 613T810 493T832 357Q832 288 811 221T742 101T619 15T435 -18Q327 -18 252 15T129 101T60 221T38 357ZM436 858L350 770H253L383 910H489L619 770H522L436 858Z"  />
<glyph unicode="&#xD5;" horiz-adv-x="870" d="M726 357Q726 428 704 481T642 569T549 622T435 640Q374 640 321 623T229 570T167 481T144 357Q144 286 166 233T228 145T321 92T435 74Q496 74 549 91T641 144T703 233T726 357ZM38 357Q38 426 59 493T128 613T251 699T435 732Q543 732 618 699T741 613T810 493T832 357Q832 288 811 221T742 101T619 15T435 -18Q327 -18 252 15T129 101T60 221T38 357ZM236 779Q241 831 270 866T350 902Q377 902 401 895T448 878Q469 869 489 863T527 857Q544 857 556 866T573 902H632Q627 850 598 815T518 779Q491 779 467 786T420 803Q399 812 379 818T341 824Q324 824 312 815T295 779H236Z"  />
<glyph unicode="&#xD6;" horiz-adv-x="870" d="M726 357Q726 428 704 481T642 569T549 622T435 640Q374 640 321 623T229 570T167 481T144 357Q144 286 166 233T228 145T321 92T435 74Q496 74 549 91T641 144T703 233T726 357ZM38 357Q38 426 59 493T128 613T251 699T435 732Q543 732 618 699T741 613T810 493T832 357Q832 288 811 221T742 101T619 15T435 -18Q327 -18 252 15T129 101T60 221T38 357ZM505 892H605V788H505V892ZM265 892H365V788H265V892Z"  />
<glyph unicode="&#xD7;" horiz-adv-x="600" d="M70 427L126 483L299 309L474 483L530 427L355 253L530 79L474 23L299 198L126 23L70 79L244 253L70 427Z"  />
<glyph unicode="&#xD8;" horiz-adv-x="870" d="M36 16L128 103Q80 157 59 222T38 357Q38 426 59 493T128 613T251 699T435 732Q526 732 591 709T705 648L798 736L834 699L742 612Q790 558 811 492T832 357Q832 288 811 221T742 101T619 15T435 -18Q344 -18 279 5T165 67L71 -22L36 16ZM631 578Q592 610 542 625T435 640Q374 640 321 623T229 570T167 481T144 357Q144 299 159 253T202 173L631 578ZM239 136Q277 105 327 90T435 74Q496 74 549 91T641 144T703 233T726 357Q726 417 711 462T668 542L239 136Z"  />
<glyph unicode="&#xD9;" horiz-adv-x="796" d="M75 714H181V257Q181 209 196 174T240 117T309 85T398 74Q447 74 487 84T555 117T599 174T615 257V714H721V270Q721 -18 398 -18Q75 -18 75 270V714ZM245 910H370L456 770H376L245 910Z"  />
<glyph unicode="&#xDA;" horiz-adv-x="796" d="M75 714H181V257Q181 209 196 174T240 117T309 85T398 74Q447 74 487 84T555 117T599 174T615 257V714H721V270Q721 -18 398 -18Q75 -18 75 270V714ZM427 910H552L421 770H341L427 910Z"  />
<glyph unicode="&#xDB;" horiz-adv-x="796" d="M75 714H181V257Q181 209 196 174T240 117T309 85T398 74Q447 74 487 84T555 117T599 174T615 257V714H721V270Q721 -18 398 -18Q75 -18 75 270V714ZM400 858L314 770H217L347 910H453L583 770H486L400 858Z"  />
<glyph unicode="&#xDC;" horiz-adv-x="796" d="M75 714H181V257Q181 209 196 174T240 117T309 85T398 74Q447 74 487 84T555 117T599 174T615 257V714H721V270Q721 -18 398 -18Q75 -18 75 270V714ZM468 892H568V788H468V892ZM228 892H328V788H228V892Z"  />
<glyph unicode="&#xDD;" horiz-adv-x="722" d="M599 714H728L413 299V0H307V294L-6 714H129L362 389L599 714ZM406 910H531L400 770H320L406 910Z"  />
<glyph unicode="&#xDE;" horiz-adv-x="722" d="M442 257Q481 257 508 267T551 294T575 335T582 386Q582 437 552 469T461 501H187V257H442ZM81 714H187V593H449Q567 593 627 541T688 388Q688 338 673 297T629 226T556 181T456 165H187V0H81V714Z"  />
<glyph unicode="&#xDF;" horiz-adv-x="648" d="M278 435Q283 434 288 434T299 433H333Q371 433 397 441T439 463T462 497T469 540Q469 567 458 587T428 620T382 641T325 648Q246 648 209 614T171 520V0H71V529Q71 583 91 621T145 684T225 720T323 732Q388 732 435 717T514 676T560 616T575 544Q575 501 554 462T476 403V401Q503 394 527 381T569 344T599 288T610 209Q610 163 594 122T544 50T463 1T351 -18Q331 -18 314 -17T273 -13V71Q290 69 304 68T334 66Q378 66 410 77T463 109T494 156T504 213Q504 247 492 272T462 313T422 338T378 347L278 351V435Z"  />
<glyph unicode="&#xE0;" horiz-adv-x="648" d="M467 274Q456 261 434 255T369 243L256 229Q196 221 167 203T137 143Q137 106 170 83T259 60Q301 60 339 70T405 100T450 147T467 207V274ZM60 360Q70 458 136 500T320 542Q360 542 402 536T480 514T538 468T561 393V111Q561 66 606 66Q614 66 623 67T641 70V0Q623 -3 602 -4T563 -6Q525 -6 502 8T473 67Q458 47 433 31T378 4T315 -12T250 -18Q185 -18 144 -3T79 35T46 86T37 140Q37 176 48 203T86 250T156 283T262 303L376 315Q418 319 442 331T467 378Q467 405 455 422T422 448T374 460T316 464Q284 464 255 459T204 442T169 410T154 360H60ZM190 740H315L401 600H321L190 740Z"  />
<glyph unicode="&#xE1;" horiz-adv-x="648" d="M467 274Q456 261 434 255T369 243L256 229Q196 221 167 203T137 143Q137 106 170 83T259 60Q301 60 339 70T405 100T450 147T467 207V274ZM60 360Q70 458 136 500T320 542Q360 542 402 536T480 514T538 468T561 393V111Q561 66 606 66Q614 66 623 67T641 70V0Q623 -3 602 -4T563 -6Q525 -6 502 8T473 67Q458 47 433 31T378 4T315 -12T250 -18Q185 -18 144 -3T79 35T46 86T37 140Q37 176 48 203T86 250T156 283T262 303L376 315Q418 319 442 331T467 378Q467 405 455 422T422 448T374 460T316 464Q284 464 255 459T204 442T169 410T154 360H60ZM361 740H486L355 600H275L361 740Z"  />
<glyph unicode="&#xE2;" horiz-adv-x="648" d="M467 274Q456 261 434 255T369 243L256 229Q196 221 167 203T137 143Q137 106 170 83T259 60Q301 60 339 70T405 100T450 147T467 207V274ZM60 360Q70 458 136 500T320 542Q360 542 402 536T480 514T538 468T561 393V111Q561 66 606 66Q614 66 623 67T641 70V0Q623 -3 602 -4T563 -6Q525 -6 502 8T473 67Q458 47 433 31T378 4T315 -12T250 -18Q185 -18 144 -3T79 35T46 86T37 140Q37 176 48 203T86 250T156 283T262 303L376 315Q418 319 442 331T467 378Q467 405 455 422T422 448T374 460T316 464Q284 464 255 459T204 442T169 410T154 360H60ZM319 688L233 600H136L266 740H372L502 600H405L319 688Z"  />
<glyph unicode="&#xE3;" horiz-adv-x="648" d="M467 274Q456 261 434 255T369 243L256 229Q196 221 167 203T137 143Q137 106 170 83T259 60Q301 60 339 70T405 100T450 147T467 207V274ZM60 360Q70 458 136 500T320 542Q360 542 402 536T480 514T538 468T561 393V111Q561 66 606 66Q614 66 623 67T641 70V0Q623 -3 602 -4T563 -6Q525 -6 502 8T473 67Q458 47 433 31T378 4T315 -12T250 -18Q185 -18 144 -3T79 35T46 86T37 140Q37 176 48 203T86 250T156 283T262 303L376 315Q418 319 442 331T467 378Q467 405 455 422T422 448T374 460T316 464Q284 464 255 459T204 442T169 410T154 360H60ZM120 609Q125 661 154 696T234 732Q261 732 285 725T332 708Q353 699 373 693T411 687Q428 687 440 696T457 732H516Q511 680 482 645T402 609Q375 609 351 616T304 633Q283 642 263 648T225 654Q208 654 196 645T179 609H120Z"  />
<glyph unicode="&#xE4;" horiz-adv-x="648" d="M467 274Q456 261 434 255T369 243L256 229Q196 221 167 203T137 143Q137 106 170 83T259 60Q301 60 339 70T405 100T450 147T467 207V274ZM60 360Q70 458 136 500T320 542Q360 542 402 536T480 514T538 468T561 393V111Q561 66 606 66Q614 66 623 67T641 70V0Q623 -3 602 -4T563 -6Q525 -6 502 8T473 67Q458 47 433 31T378 4T315 -12T250 -18Q185 -18 144 -3T79 35T46 86T37 140Q37 176 48 203T86 250T156 283T262 303L376 315Q418 319 442 331T467 378Q467 405 455 422T422 448T374 460T316 464Q284 464 255 459T204 442T169 410T154 360H60ZM388 722H488V618H388V722ZM148 722H248V618H148V722Z"  />
<glyph unicode="&#xE5;" horiz-adv-x="648" d="M467 274Q456 261 434 255T369 243L256 229Q196 221 167 203T137 143Q137 106 170 83T259 60Q301 60 339 70T405 100T450 147T467 207V274ZM60 360Q70 458 136 500T320 542Q360 542 402 536T480 514T538 468T561 393V111Q561 66 606 66Q614 66 623 67T641 70V0Q623 -3 602 -4T563 -6Q525 -6 502 8T473 67Q458 47 433 31T378 4T315 -12T250 -18Q185 -18 144 -3T79 35T46 86T37 140Q37 176 48 203T86 250T156 283T262 303L376 315Q418 319 442 331T467 378Q467 405 455 422T422 448T374 460T316 464Q284 464 255 459T204 442T169 410T154 360H60ZM381 700Q381 725 362 744T318 763Q293 763 274 744T255 700Q255 675 274 656T318 637Q343 637 362 656T381 700ZM201 700Q201 724 210 745T235 783T272 808T318 817Q342 817 363 808T401 783T426 746T435 700Q435 676 426 655T401 617T364 592T318 583Q292 583 271 592T234 617T210 654T201 700Z"  />
<glyph unicode="&#xE6;" horiz-adv-x="1074" d="M467 254Q441 247 420 243T369 237L270 230Q203 225 170 205T137 143Q137 106 170 83T259 60Q301 60 339 70T405 100T450 147T467 207V254ZM927 310Q915 382 865 420T744 458Q709 458 679 448T624 420T584 374T561 310H927ZM561 232Q571 151 613 109T745 66Q766 66 790 70T837 84T880 113T913 159H1019Q1000 112 970 79T904 24T828 -8T749 -18Q715 -18 681 -14T616 2T555 36T503 96Q494 81 475 62T425 24T351 -6T250 -18Q185 -18 144 -3T79 35T46 86T37 140Q37 177 48 204T86 252T153 284T256 303L376 315Q418 319 442 331T467 378Q467 405 455 422T422 448T374 460T316 464Q284 464 255 459T204 442T169 410T154 360H60Q70 458 136 500T320 542Q389 542 447 523T543 454Q581 500 635 521T750 542Q817 542 870 520T959 459T1014 365T1033 245V232H561Z"  />
<glyph unicode="&#xE7;" horiz-adv-x="630" d="M243 -82L283 -16Q257 -14 234 -8T190 6Q149 24 121 51T74 112T47 182T38 259Q38 317 56 368T109 458T198 519T322 542Q374 542 420 530T503 494T562 434T594 349H488Q479 400 439 429T329 458Q281 458 246 443T189 402T155 340T144 262Q144 220 155 184T188 122T246 81T329 66Q398 66 435 96T490 192H596Q572 104 527 56T417 -7Q397 -12 377 -14T333 -18L310 -56Q325 -52 344 -52Q379 -52 406 -67T433 -117Q433 -140 423 -156T395 -183T356 -197T313 -202Q263 -202 207 -188L220 -141Q233 -146 254 -150T295 -154Q316 -154 332 -146T349 -123Q349 -113 340 -104T307 -94Q296 -94 284 -96T261 -101L243 -82Z"  />
<glyph unicode="&#xE8;" horiz-adv-x="667" d="M520 310Q508 382 458 420T337 458Q302 458 271 448T214 419T171 373T147 310H520ZM144 232Q147 191 165 160T210 108T270 77T337 66Q358 66 382 70T430 84T473 113T506 159H612Q593 112 563 79T497 24T421 -8T342 -18Q265 -18 208 4T114 65T57 154T38 262Q38 319 57 369T113 458T208 519T342 542Q394 542 444 526T535 475T601 383T626 245V232H144ZM188 740H313L399 600H319L188 740Z"  />
<glyph unicode="&#xE9;" horiz-adv-x="667" d="M520 310Q508 382 458 420T337 458Q302 458 271 448T214 419T171 373T147 310H520ZM144 232Q147 191 165 160T210 108T270 77T337 66Q358 66 382 70T430 84T473 113T506 159H612Q593 112 563 79T497 24T421 -8T342 -18Q265 -18 208 4T114 65T57 154T38 262Q38 319 57 369T113 458T208 519T342 542Q394 542 444 526T535 475T601 383T626 245V232H144ZM378 740H503L372 600H292L378 740Z"  />
<glyph unicode="&#xEA;" horiz-adv-x="667" d="M520 310Q508 382 458 420T337 458Q302 458 271 448T214 419T171 373T147 310H520ZM144 232Q147 191 165 160T210 108T270 77T337 66Q358 66 382 70T430 84T473 113T506 159H612Q593 112 563 79T497 24T421 -8T342 -18Q265 -18 208 4T114 65T57 154T38 262Q38 319 57 369T113 458T208 519T342 542Q394 542 444 526T535 475T601 383T626 245V232H144ZM340 688L254 600H157L287 740H393L523 600H426L340 688Z"  />
<glyph unicode="&#xEB;" horiz-adv-x="667" d="M520 310Q508 382 458 420T337 458Q302 458 271 448T214 419T171 373T147 310H520ZM144 232Q147 191 165 160T210 108T270 77T337 66Q358 66 382 70T430 84T473 113T506 159H612Q593 112 563 79T497 24T421 -8T342 -18Q265 -18 208 4T114 65T57 154T38 262Q38 319 57 369T113 458T208 519T342 542Q394 542 444 526T535 475T601 383T626 245V232H144ZM410 722H510V618H410V722ZM170 722H270V618H170V722Z"  />
<glyph unicode="&#xEC;" horiz-adv-x="222" d="M61 524H161V0H61V524ZM-49 740H76L162 600H82L-49 740Z"  />
<glyph unicode="&#xED;" horiz-adv-x="222" d="M61 524H161V0H61V524ZM149 740H274L143 600H63L149 740Z"  />
<glyph unicode="&#xEE;" horiz-adv-x="222" d="M61 524H161V0H61V524ZM111 688L25 600H-72L58 740H164L294 600H197L111 688Z"  />
<glyph unicode="&#xEF;" horiz-adv-x="222" d="M61 524H161V0H61V524ZM181 722H281V618H181V722ZM-59 722H41V618H-59V722Z"  />
<glyph unicode="&#xF0;" horiz-adv-x="684" d="M253 656Q228 667 203 676T152 694L221 750Q254 739 285 726T346 697L465 750L506 714L398 666Q519 588 582 485T646 270Q646 208 627 156T571 65T476 4T342 -18Q265 -18 208 4T114 65T57 154T38 262Q38 321 60 372T122 461T215 520T329 542Q368 542 402 531T463 495L465 497Q430 539 393 570T310 627L181 570L141 606L253 656ZM540 262Q540 298 530 333T496 395T434 440T342 458Q288 458 250 441T189 396T155 333T144 262Q144 226 154 191T188 129T250 84T342 66Q396 66 434 83T495 128T529 191T540 262Z"  />
<glyph unicode="&#xF1;" horiz-adv-x="649" d="M61 524H161V445H163Q200 500 255 521T368 542Q415 542 455 532T525 499T571 441T588 357V0H488V337Q488 395 451 426T333 458Q299 458 268 448T213 419T175 370T161 302V0H61V524ZM126 609Q131 661 160 696T240 732Q267 732 291 725T338 708Q359 699 379 693T417 687Q434 687 446 696T463 732H522Q517 680 488 645T408 609Q381 609 357 616T310 633Q289 642 269 648T231 654Q214 654 202 645T185 609H126Z"  />
<glyph unicode="&#xF2;" horiz-adv-x="684" d="M540 262Q540 298 530 333T496 395T434 440T342 458Q288 458 250 441T189 396T155 333T144 262Q144 226 154 191T188 129T250 84T342 66Q396 66 434 83T495 128T529 191T540 262ZM38 262Q38 319 57 369T113 458T208 519T342 542Q418 542 475 520T570 459T627 370T646 262Q646 205 627 155T571 66T476 5T342 -18Q265 -18 208 4T114 65T57 154T38 262ZM186 740H311L397 600H317L186 740Z"  />
<glyph unicode="&#xF3;" horiz-adv-x="684" d="M540 262Q540 298 530 333T496 395T434 440T342 458Q288 458 250 441T189 396T155 333T144 262Q144 226 154 191T188 129T250 84T342 66Q396 66 434 83T495 128T529 191T540 262ZM38 262Q38 319 57 369T113 458T208 519T342 542Q418 542 475 520T570 459T627 370T646 262Q646 205 627 155T571 66T476 5T342 -18Q265 -18 208 4T114 65T57 154T38 262ZM387 740H512L381 600H301L387 740Z"  />
<glyph unicode="&#xF4;" horiz-adv-x="684" d="M540 262Q540 298 530 333T496 395T434 440T342 458Q288 458 250 441T189 396T155 333T144 262Q144 226 154 191T188 129T250 84T342 66Q396 66 434 83T495 128T529 191T540 262ZM38 262Q38 319 57 369T113 458T208 519T342 542Q418 542 475 520T570 459T627 370T646 262Q646 205 627 155T571 66T476 5T342 -18Q265 -18 208 4T114 65T57 154T38 262ZM345 688L259 600H162L292 740H398L528 600H431L345 688Z"  />
<glyph unicode="&#xF5;" horiz-adv-x="684" d="M540 262Q540 298 530 333T496 395T434 440T342 458Q288 458 250 441T189 396T155 333T144 262Q144 226 154 191T188 129T250 84T342 66Q396 66 434 83T495 128T529 191T540 262ZM38 262Q38 319 57 369T113 458T208 519T342 542Q418 542 475 520T570 459T627 370T646 262Q646 205 627 155T571 66T476 5T342 -18Q265 -18 208 4T114 65T57 154T38 262ZM147 609Q152 661 181 696T261 732Q288 732 312 725T359 708Q380 699 400 693T438 687Q455 687 467 696T484 732H543Q538 680 509 645T429 609Q402 609 378 616T331 633Q310 642 290 648T252 654Q235 654 223 645T206 609H147Z"  />
<glyph unicode="&#xF6;" horiz-adv-x="684" d="M540 262Q540 298 530 333T496 395T434 440T342 458Q288 458 250 441T189 396T155 333T144 262Q144 226 154 191T188 129T250 84T342 66Q396 66 434 83T495 128T529 191T540 262ZM38 262Q38 319 57 369T113 458T208 519T342 542Q418 542 475 520T570 459T627 370T646 262Q646 205 627 155T571 66T476 5T342 -18Q265 -18 208 4T114 65T57 154T38 262ZM415 722H515V618H415V722ZM175 722H275V618H175V722Z"  />
<glyph unicode="&#xF7;" horiz-adv-x="600" d="M47 295H553V211H47V295ZM230 46Q230 75 250 95T300 116Q329 116 349 96T370 46Q370 17 350 -3T300 -24Q271 -24 251 -4T230 46ZM230 460Q230 489 250 509T300 530Q329 530 349 510T370 460Q370 431 350 411T300 390Q271 390 251 410T230 460Z"  />
<glyph unicode="&#xF8;" horiz-adv-x="684" d="M617 547L646 516L577 452Q612 414 629 365T646 262Q646 205 627 155T571 66T476 5T342 -18Q276 -18 226 -2T139 44L67 -23L38 8L108 73Q73 111 56 159T38 262Q38 319 57 369T113 458T208 519T342 542Q408 542 457 526T545 480L617 547ZM475 415Q451 435 419 446T342 458Q288 458 250 441T189 396T155 333T144 262Q144 230 152 198T180 140L475 415ZM209 109Q232 89 264 78T342 66Q396 66 434 83T495 128T529 191T540 262Q540 294 532 326T504 384L209 109Z"  />
<glyph unicode="&#xF9;" horiz-adv-x="649" d="M588 0H488V79H486Q449 24 394 3T281 -18Q234 -18 194 -8T124 25T78 83T61 167V524H161V187Q161 129 198 98T316 66Q350 66 381 76T436 105T474 154T488 222V524H588V0ZM172 740H297L383 600H303L172 740Z"  />
<glyph unicode="&#xFA;" horiz-adv-x="649" d="M588 0H488V79H486Q449 24 394 3T281 -18Q234 -18 194 -8T124 25T78 83T61 167V524H161V187Q161 129 198 98T316 66Q350 66 381 76T436 105T474 154T488 222V524H588V0ZM366 740H491L360 600H280L366 740Z"  />
<glyph unicode="&#xFB;" horiz-adv-x="649" d="M588 0H488V79H486Q449 24 394 3T281 -18Q234 -18 194 -8T124 25T78 83T61 167V524H161V187Q161 129 198 98T316 66Q350 66 381 76T436 105T474 154T488 222V524H588V0ZM326 688L240 600H143L273 740H379L509 600H412L326 688Z"  />
<glyph unicode="&#xFC;" horiz-adv-x="649" d="M588 0H488V79H486Q449 24 394 3T281 -18Q234 -18 194 -8T124 25T78 83T61 167V524H161V187Q161 129 198 98T316 66Q350 66 381 76T436 105T474 154T488 222V524H588V0ZM393 722H493V618H393V722ZM153 722H253V618H153V722Z"  />
<glyph unicode="&#xFD;" horiz-adv-x="574" d="M467 524H579L305 -90Q286 -132 268 -157T230 -197T184 -215T123 -220Q104 -220 86 -219T47 -216V-132Q61 -133 74 -134T105 -136Q128 -136 143 -133T170 -121T192 -97T214 -56L237 -8L-5 524H110L290 110L467 524ZM334 740H459L328 600H248L334 740Z"  />
<glyph unicode="&#xFE;" horiz-adv-x="685" d="M541 259Q541 296 530 331T496 393T436 436T349 452Q298 452 262 436T201 393T166 331T155 259Q155 214 169 178T208 118T269 80T349 66Q437 66 489 117T541 259ZM61 720H161V451H163Q178 472 200 487T248 514T304 530T362 536Q421 536 473 518T563 464T624 377T647 259Q647 193 625 142T564 55T473 1T362 -18Q333 -18 304 -13T248 3T200 30T163 67H161V-202H61V720Z"  />
<glyph unicode="&#xFF;" horiz-adv-x="574" d="M467 524H579L305 -90Q286 -132 268 -157T230 -197T184 -215T123 -220Q104 -220 86 -219T47 -216V-132Q61 -133 74 -134T105 -136Q128 -136 143 -133T170 -121T192 -97T214 -56L237 -8L-5 524H110L290 110L467 524ZM361 722H461V618H361V722ZM121 722H221V618H121V722Z"  />
<glyph unicode="&#x131;" horiz-adv-x="222" d="M61 524H161V0H61V524Z"  />
<glyph unicode="&#x152;" horiz-adv-x="1167" d="M604 81H602Q563 30 507 6T385 -18Q300 -18 237 15T133 101T72 222T51 357Q51 425 71 492T133 612T237 699T385 732Q457 732 513 709T604 644V714H1116V622H701V415H1102V323H701V92H1124V0H604V81ZM601 503Q601 521 588 544T549 589T485 625T398 640Q359 640 316 628T238 583T180 496T157 357Q157 273 180 219T238 132T316 87T398 74Q442 74 479 89T544 128T586 177T601 225V503Z"  />
<glyph unicode="&#x153;" horiz-adv-x="1111" d="M975 310Q963 382 913 420T792 458Q723 458 675 420T615 310H975ZM521 267Q521 313 506 348T466 408T406 445T334 458Q287 458 252 443T192 402T156 339T144 261Q144 219 157 183T195 121T253 81T330 66Q379 66 415 82T474 126T509 190T521 267ZM615 232Q618 185 635 153T677 102T732 74T792 66Q813 66 837 70T885 84T928 113T961 159H1067Q1048 112 1018 79T952 24T876 -8T797 -18Q722 -18 664 5T563 86Q525 35 467 9T333 -18Q255 -18 199 4T108 65T55 154T38 262Q38 328 61 380T123 468T217 523T333 542Q399 542 462 518T570 434Q610 485 664 513T798 542Q865 542 918 520T1007 459T1062 365T1081 245V232H615Z"  />
<glyph unicode="&#x160;" horiz-adv-x="667" d="M122 235Q123 187 144 156T197 107T270 81T352 74Q394 74 429 82T490 105T530 143T545 195Q545 244 510 267T412 301L250 328Q218 333 181 343T112 374T59 429T38 515Q38 564 57 604T112 672T202 716T324 732Q378 732 430 721T525 685T596 616T628 508H522Q519 529 510 552T477 594T414 627T310 640Q281 640 252 634T198 613T159 577T144 523Q144 490 169 465T261 429L436 399Q457 395 493 387T564 359T625 305T651 216Q651 148 624 103T552 31T453 -7T344 -18Q284 -18 225 -6T120 35T45 112T16 235H122ZM428 910H525L395 770H289L159 910H256L342 822L428 910Z"  />
<glyph unicode="&#x161;" horiz-adv-x="593" d="M131 165Q131 147 139 129T166 95T216 70T296 60Q344 60 375 67T424 87T449 113T456 142Q456 170 437 187T357 212L192 234Q163 238 138 249T93 277T62 318T50 373Q50 454 113 498T289 542Q353 542 400 529T478 493T525 437T545 366H445Q443 406 405 435T288 464Q264 464 240 460T195 447T163 423T150 384Q150 358 167 342T237 319L379 300Q478 286 520 251T562 161Q562 115 544 82T491 26T408 -7T299 -18Q254 -18 208 -11T124 16T61 72T31 165H131ZM387 740H484L354 600H248L118 740H215L301 652L387 740Z"  />
<glyph unicode="&#x178;" horiz-adv-x="722" d="M599 714H728L413 299V0H307V294L-6 714H129L362 389L599 714ZM432 892H532V788H432V892ZM192 892H292V788H192V892Z"  />
<glyph unicode="&#x17D;" horiz-adv-x="685" d="M14 95L524 622H50V714H663V622L151 92H671V0H14V95ZM442 910H539L409 770H303L173 910H270L356 822L442 910Z"  />
<glyph unicode="&#x17E;" horiz-adv-x="593" d="M27 82L413 440H46V524H551V446L160 84H566V0H27V82ZM392 740H489L359 600H253L123 740H220L306 652L392 740Z"  />
<glyph unicode="&#x192;" horiz-adv-x="668" d="M303 555Q312 601 328 631T366 678T414 703T471 710Q497 710 522 707T574 702L557 620Q528 624 515 625T489 626Q470 626 456 622T430 607T410 576T396 524L367 381H504L490 321H354L280 -57Q268 -120 223 -158T100 -196Q80 -196 54 -193T9 -186L26 -106Q45 -111 59 -114T90 -118Q107 -118 122 -115T149 -100T171 -69T187 -16L254 321H122L134 381H267L303 555Z"  />
<glyph unicode="&#x2C6;" horiz-adv-x="222" d="M111 688L25 600H-72L58 740H164L294 600H197L111 688Z"  />
<glyph unicode="&#x2C7;" horiz-adv-x="222" d="M197 740H294L164 600H58L-72 740H25L111 652L197 740Z"  />
<glyph unicode="&#x2DA;" horiz-adv-x="222" d="M174 700Q174 725 155 744T111 763Q86 763 67 744T48 700Q48 675 67 656T111 637Q136 637 155 656T174 700ZM-6 700Q-6 724 3 745T28 783T65 808T111 817Q135 817 156 808T194 783T219 746T228 700Q228 676 219 655T194 617T157 592T111 583Q85 583 64 592T27 617T3 654T-6 700Z"  />
<glyph unicode="&#x2DC;" horiz-adv-x="222" d="M-87 609Q-82 661 -53 696T27 732Q54 732 78 725T125 708Q146 699 166 693T204 687Q221 687 233 696T250 732H309Q304 680 275 645T195 609Q168 609 144 616T97 633Q76 642 56 648T18 654Q1 654 -11 645T-28 609H-87Z"  />
<glyph unicode="&#x2013;" horiz-adv-x="500" d="M0 320H500V236H0V320Z"  />
<glyph unicode="&#x2014;" horiz-adv-x="1000" d="M0 320H1000V236H0V320Z"  />
<glyph unicode="&#x2018;" horiz-adv-x="334" d="M105 547Q105 577 112 604T134 654T172 692T229 714V665Q199 656 185 634T169 561H229V445H105V547Z"  />
<glyph unicode="&#x2019;" horiz-adv-x="334" d="M105 494Q135 503 149 525T165 598H105V714H229V612Q229 582 222 555T200 505T162 467T105 445V494Z"  />
<glyph unicode="&#x201A;" horiz-adv-x="334" d="M105 -104Q135 -95 149 -73T165 0H105V116H229V14Q229 -16 222 -43T200 -93T162 -131T105 -153V-104Z"  />
<glyph unicode="&#x201C;" horiz-adv-x="481" d="M73 547Q73 577 80 604T102 654T140 692T197 714V665Q167 656 153 634T137 561H197V445H73V547ZM284 547Q284 577 291 604T313 654T351 692T408 714V665Q378 656 364 634T348 561H408V445H284V547Z"  />
<glyph unicode="&#x201D;" horiz-adv-x="481" d="M73 494Q103 503 117 525T133 598H73V714H197V612Q197 582 190 555T168 505T130 467T73 445V494ZM284 494Q314 503 328 525T344 598H284V714H408V612Q408 582 401 555T379 505T341 467T284 445V494Z"  />
<glyph unicode="&#x201E;" horiz-adv-x="481" d="M73 -104Q103 -95 117 -73T133 0H73V116H197V14Q197 -16 190 -43T168 -93T130 -131T73 -153V-104ZM284 -104Q314 -95 328 -73T344 0H284V116H408V14Q408 -16 401 -43T379 -93T341 -131T284 -153V-104Z"  />
<glyph unicode="&#x2020;" horiz-adv-x="668" d="M53 482H284V714H384V482H615V390H384V-190H284V390H53V482Z"  />
<glyph unicode="&#x2021;" horiz-adv-x="668" d="M284 406H53V490H284V714H384V490H615V406H384V118H615V34H384V-190H284V34H53V118H284V406Z"  />
<glyph unicode="&#x2022;" horiz-adv-x="500" d="M72 357Q72 394 86 426T124 483T180 521T250 535Q287 535 319 521T376 483T414 427T428 357Q428 320 414 288T376 231T320 193T250 179Q213 179 181 193T124 231T86 287T72 357Z"  />
<glyph unicode="&#x2026;" horiz-adv-x="1000" d="M771 116H895V0H771V116ZM438 116H562V0H438V116ZM105 116H229V0H105V116Z"  />
<glyph unicode="&#x2030;" horiz-adv-x="1167" d="M549 710H633L236 -16H152L549 710ZM7 522Q7 561 16 595T46 654T98 695T178 710Q224 710 257 695T310 655T339 595T349 522Q349 483 340 449T310 389T257 349T178 334Q131 334 99 348T46 388T17 448T7 522ZM271 522Q271 588 246 616T178 644Q135 644 110 616T85 522Q85 456 110 428T178 400Q221 400 246 428T271 522ZM697 172Q697 238 672 266T604 294Q561 294 536 266T511 172Q511 106 536 78T604 50Q647 50 672 78T697 172ZM433 172Q433 211 442 245T472 304T524 345T604 360Q650 360 683 345T736 305T765 245T775 172Q775 133 766 99T736 39T683 -1T604 -16Q557 -16 525 -2T472 38T443 98T433 172ZM1082 172Q1082 238 1057 266T989 294Q946 294 921 266T896 172Q896 106 921 78T989 50Q1032 50 1057 78T1082 172ZM818 172Q818 211 827 245T857 304T909 345T989 360Q1035 360 1068 345T1121 305T1150 245T1160 172Q1160 133 1151 99T1121 39T1068 -1T989 -16Q942 -16 910 -2T857 38T828 98T818 172Z"  />
<glyph unicode="&#x2039;" horiz-adv-x="334" d="M77 330L257 463V362L138 278L257 194V93L77 226V330Z"  />
<glyph unicode="&#x203A;" horiz-adv-x="334" d="M77 362V463L257 330V226L77 93V194L196 278L77 362Z"  />
<glyph unicode="&#x20AC;" horiz-adv-x="668" d="M600 571Q555 593 513 606T420 619Q247 619 198 449H553L526 389H186L184 333H508L481 273H190Q208 179 265 126T423 72Q456 72 483 78T535 95T584 121T634 156V50Q607 31 583 19T534 -1T482 -12T422 -16Q278 -16 192 57T84 273H12L39 333H80L82 389H10L37 449H91Q121 575 207 641T421 708Q485 708 536 694T644 650L600 571Z"  />
<glyph unicode="&#x2122;" horiz-adv-x="990" d="M816 630H814L693 302H637L516 630H514V302H436V714H553L665 422L777 714H894V302H816V630ZM144 648H20V714H352V648H228V302H144V648Z"  />

</font>
</defs>
</svg>
