<svg xmlns="http://www.w3.org/2000/svg">
<defs>
<font horiz-adv-x="580" id="7a48747c-74f2-49a8-bb65-1c522d4aa618">
<font-face font-family="" panose-1="2 11 8 4 2 2 2 2 2 4" ascent="951" descent="-234" units-per-em="1000" alphabetic="0">
</font-face>
<missing-glyph horiz-adv-x="315" />

<glyph unicode="&#xA;" />
<glyph unicode="&#xD;" />
<glyph unicode=" " horiz-adv-x="315" />
<glyph unicode="!" horiz-adv-x="296" d="M55 186H241V0H55V186ZM236 537L190 236H107L61 537V714H236V537Z"  />
<glyph unicode="&quot;" horiz-adv-x="500" d="M62 714H206V354H62V714ZM294 714H438V354H294V714Z"  />
<glyph unicode="#" horiz-adv-x="630" d="M288 405L273 295H354L369 405H288ZM531 190H454L428 0H313L339 190H258L232 0H117L143 190H69V295H158L173 405H99V510H188L214 697H329L303 510H384L410 697H525L499 510H561V405H484L469 295H531V190Z"  />
<glyph unicode="$" horiz-adv-x="630" d="M345 728Q395 725 441 710T523 667T581 596T603 495H417Q419 533 398 553T345 581V445Q362 440 381 436T419 426Q458 415 495 400T561 361T608 303T626 220Q626 157 603 114T540 42T451 1T345 -15V-105H298V-15Q239 -13 186 1T93 46T29 123T5 236H191Q194 182 222 158T298 128V285Q284 289 268 293T235 302Q197 313 160 328T93 366T45 424T26 508Q26 566 50 607T113 674T200 714T298 729V819H345V728ZM298 585Q283 585 268 582T241 571T220 551T212 520Q212 496 236 482T298 457V585ZM345 129Q361 130 378 134T409 146T431 167T440 198Q440 227 414 243T345 272V129Z"  />
<glyph unicode="%" horiz-adv-x="1019" d="M719 183Q719 168 720 149T726 113T742 83T774 71Q794 71 805 83T821 112T827 149T828 183Q828 198 827 217T821 253T805 283T774 295Q753 295 742 283T726 254T720 217T719 183ZM602 183Q602 224 613 259T645 320T698 360T774 375Q818 375 850 361T904 322T935 262T945 183Q945 141 936 106T906 45T853 5T774 -9Q729 -9 697 5T643 45T612 106T602 183ZM75 514Q75 555 86 590T118 651T171 691T247 706Q291 706 323 692T377 653T408 593T418 514Q418 472 409 437T379 376T326 336T247 322Q202 322 170 336T116 376T85 437T75 514ZM260 -27L664 724H763L359 -27H260ZM192 514Q192 499 193 480T199 444T215 414T247 402Q267 402 278 414T294 443T300 480T301 514Q301 529 300 548T294 584T278 614T247 626Q226 626 215 614T199 585T193 548T192 514Z"  />
<glyph unicode="&amp;" horiz-adv-x="722" d="M334 466Q360 482 380 502T400 554Q400 580 383 594T340 609Q317 609 301 594T284 556Q284 527 300 507T334 466ZM477 60Q430 22 381 4T272 -15Q224 -15 181 0T106 44T54 113T34 203Q34 241 47 273T82 330T134 376T196 411Q170 440 152 473T133 548Q133 590 150 623T196 680T261 716T337 729Q377 729 413 716T478 679T522 621T539 544Q539 481 505 438T417 367L491 278Q512 310 517 348H663Q658 300 638 255T584 174L734 0H527L477 60ZM281 299Q268 293 254 284T227 262T206 236T198 205Q198 186 206 171T227 146T258 129T292 123Q316 123 341 139T387 174L281 299Z"  />
<glyph unicode="&apos;" horiz-adv-x="296" d="M76 714H220V354H76V714Z"  />
<glyph unicode="(" horiz-adv-x="296" d="M305 729Q254 625 224 510T195 274Q193 158 223 44T305 -174H161Q130 -114 107 -61T69 46T45 154T36 274Q37 341 45 397T68 507T107 615T161 729H305Z"  />
<glyph unicode=")" horiz-adv-x="296" d="M135 729Q166 669 189 615T227 508T251 398T260 274Q259 210 251 155T228 46T189 -60T135 -174H-9Q42 -70 72 44T101 274Q103 395 73 510T-9 729H135Z"  />
<glyph unicode="*" horiz-adv-x="444" d="M374 396L295 337L220 444L146 337L68 395L147 499L25 537L56 630L172 586V714H271V586L387 630L418 537L297 499L374 396Z"  />
<glyph unicode="+" horiz-adv-x="600" d="M228 506H372V325H552V181H372V0H228V181H48V325H228V506Z"  />
<glyph unicode="&#x2c;" horiz-adv-x="316" d="M65 186H251V21Q251 -33 233 -69T186 -127T126 -160T65 -174V-94Q106 -83 124 -61T147 0H65V186Z"  />
<glyph unicode="-" horiz-adv-x="407" d="M48 200V344H359V200H48Z"  />
<glyph unicode="." horiz-adv-x="316" d="M65 186H251V0H65V186Z"  />
<glyph unicode="/" horiz-adv-x="407" d="M260 729H416L147 -15H-9L260 729Z"  />
<glyph unicode="0" horiz-adv-x="630" d="M310 -9Q236 -9 184 21T100 100T52 214T37 349Q37 419 52 483T99 597T184 676T310 706Q386 706 440 677T528 598T578 484T594 349Q594 279 579 215T529 101T440 21T310 -9ZM315 129Q357 129 380 150T414 205T428 276T430 349Q430 383 428 421T415 492T380 546T315 568Q274 568 252 547T218 493T204 422T201 349Q201 315 203 277T217 205T251 151T315 129Z"  />
<glyph unicode="1" horiz-adv-x="630" d="M105 428V553Q142 552 177 559T242 583T289 628T311 697H452V0H272V428H105Z"  />
<glyph unicode="2" horiz-adv-x="630" d="M32 0Q33 67 61 127T141 232Q186 271 234 299T323 354Q363 380 388 407T414 470Q414 511 390 534T324 557Q290 557 268 546T233 515T214 470T208 416H49Q45 481 63 534T117 626T205 685T323 706Q375 706 422 693T505 652T562 583T584 485Q584 435 568 399T524 335T460 285T386 238Q366 226 350 216T320 196T292 173T260 144H591V0H32Z"  />
<glyph unicode="3" horiz-adv-x="630" d="M257 426Q268 427 279 426T302 425Q321 425 341 428T377 439T404 461T415 498Q415 532 386 550T315 568Q263 568 235 543T207 469H48Q49 527 70 571T126 646T210 691T314 706Q359 706 405 696T489 663T550 603T574 513Q574 490 568 468T550 426T519 394T477 377V375Q537 359 566 318T596 215Q596 156 572 114T507 44T417 4T314 -9Q253 -9 200 7T107 55T47 136T29 253H188Q185 129 313 129Q335 129 355 134T391 149T416 176T426 215Q426 244 416 262T390 291T350 306T302 310Q291 310 280 310T257 308V426Z"  />
<glyph unicode="4" horiz-adv-x="630" d="M341 299V524H339L163 299H341ZM597 299V155H506V0H336V155H31V314L343 697H506V299H597Z"  />
<glyph unicode="5" horiz-adv-x="630" d="M192 216Q192 195 202 179T229 152T265 135T304 129Q354 129 387 159T420 241Q420 292 392 324T310 356Q274 356 247 346T199 303H45L113 697H553V553H244L218 426H220Q246 452 281 464T356 476Q410 476 453 461T526 417T573 346T590 249Q590 184 568 136T508 56T417 7T304 -9Q247 -9 197 2T110 40T49 110T22 216H192Z"  />
<glyph unicode="6" horiz-adv-x="630" d="M426 516Q421 537 412 549T391 570Q379 577 366 579T342 581Q305 581 280 565T238 522T213 465T203 404H205Q231 447 274 462T368 478Q416 478 457 460T529 411T576 338T594 248Q594 186 572 138T512 58T423 8T315 -9Q238 -9 185 21T99 100T52 213T37 344Q37 417 55 483T110 598T205 677T342 706Q388 706 429 694T502 659T555 600T585 516H426ZM207 237Q207 192 237 161T317 129Q344 129 365 137T402 161T426 195T435 236Q435 285 405 319T316 353Q292 353 272 344T238 319T215 282T207 237Z"  />
<glyph unicode="7" horiz-adv-x="630" d="M60 697H567V560Q556 551 538 529T499 477T457 411T418 335Q375 242 361 156T345 0H162Q163 31 169 70T186 152T213 242T254 335Q272 375 293 410T334 473T370 518T394 541V543H60V697Z"  />
<glyph unicode="8" horiz-adv-x="630" d="M316 581Q295 581 276 577T242 563T219 538T210 501Q210 478 219 462T243 437T277 423T316 419Q335 419 354 423T388 437T413 462T423 501Q423 522 414 537T390 562T356 576T316 581ZM29 205Q29 235 38 263T66 313T108 350T163 370V372Q112 384 86 423T59 514Q59 566 83 602T144 662T228 695T318 706Q363 706 408 696T490 662T550 602T574 513Q574 489 567 466T547 424T514 391T471 372V370Q531 358 566 315T602 205Q602 147 577 107T512 41T420 3T317 -9Q266 -9 215 1T122 37T55 103T29 205ZM317 314Q294 314 273 308T236 290T209 258T199 214Q199 188 209 170T235 139T272 122T316 116Q338 116 358 121T395 138T422 168T432 214Q432 262 399 288T317 314Z"  />
<glyph unicode="9" horiz-adv-x="630" d="M205 181Q208 164 217 152T239 132Q252 124 267 120T299 116Q333 116 357 130T396 170T419 226T428 293H426Q414 273 397 259T359 235T315 222T270 218Q218 218 175 236T102 285T54 360T37 455Q37 511 58 557T116 636T201 687T304 706Q380 706 435 679T525 606T577 497T594 365Q594 290 578 222T525 103T430 21T289 -9Q193 -9 129 37T46 181H205ZM308 343Q335 343 356 352T393 376T416 412T424 457Q424 504 393 536T307 568Q283 568 263 559T228 535T205 501T196 459Q196 410 225 377T308 343Z"  />
<glyph unicode=":" horiz-adv-x="316" d="M65 186H251V0H65V186ZM251 333H65V519H251V333Z"  />
<glyph unicode=";" horiz-adv-x="316" d="M251 333H65V519H251V333ZM65 186H251V21Q251 -33 233 -69T186 -127T126 -160T65 -174V-94Q106 -83 124 -61T147 0H65V186Z"  />
<glyph unicode="&lt;" horiz-adv-x="600" d="M46 182V324L554 514V360L247 254V252L554 146V-8L46 182Z"  />
<glyph unicode="=" horiz-adv-x="600" d="M552 57H48V201H552V57ZM552 305H48V449H552V305Z"  />
<glyph unicode="&gt;" horiz-adv-x="600" d="M46 146L353 252V254L46 360V514L554 324V182L46 -8V146Z"  />
<glyph unicode="?" horiz-adv-x="574" d="M182 186H368V0H182V186ZM31 480Q32 539 51 585T104 664T186 712T293 729Q340 729 385 717T465 679T521 615T543 525Q543 489 535 463T510 417T471 380T420 345Q400 332 388 322T368 301T357 274T354 236H196V286Q196 315 203 336T222 374T248 403T277 425Q292 435 306 445T332 466T350 491T357 524Q357 553 338 569T292 585Q250 585 229 562T206 499V480H31Z"  />
<glyph unicode="@" horiz-adv-x="800" d="M526 536H620L576 298Q574 292 573 283T571 264T572 249T583 243Q599 243 615 251T645 278T667 326T676 395Q676 455 657 500T602 576T519 621T414 637Q352 637 302 616T216 558T161 469T142 356Q142 290 163 239T223 151T314 96T431 77Q488 77 535 92T620 136H718Q664 62 590 24T423 -15Q343 -15 273 12T149 89T66 206T35 356Q35 436 65 504T147 622T268 700T417 729Q483 729 545 708T657 648T735 552T765 427Q765 370 751 326T715 250T664 197T609 162T557 144T518 138Q490 138 474 150T456 187H454Q439 167 416 152T358 137Q326 137 296 151T243 190T207 248T193 318Q193 362 207 403T247 476T311 527T394 546Q432 546 463 533T517 488L526 536ZM386 252Q433 252 460 283T488 357Q488 393 467 415T409 438Q387 438 369 429T338 406T318 372T310 334Q310 299 329 276T386 252Z"  />
<glyph unicode="A" horiz-adv-x="704" d="M258 714H447L714 0H520L476 128H227L182 0H-9L258 714ZM270 266H432L353 516H351L270 266Z"  />
<glyph unicode="B" horiz-adv-x="722" d="M250 433H394Q406 433 419 436T444 448T462 469T470 501Q470 540 447 555T394 570H250V433ZM64 714H398Q444 715 490 708T573 681T633 626T656 535Q656 487 630 450T562 391Q619 374 652 329T685 222Q685 158 663 116T604 48T515 11T407 0H64V714ZM250 149H399Q443 149 471 167T499 229Q499 276 470 294T399 313H250V149Z"  />
<glyph unicode="C" horiz-adv-x="759" d="M538 459Q530 513 492 541T394 569Q349 569 318 551T266 503T237 435T228 357Q228 317 237 279T266 211T317 163T394 145Q460 145 496 180T538 277H724Q720 208 694 154T625 62T524 5T398 -15Q317 -15 251 14T139 93T67 211T42 357Q42 435 67 502T138 620T251 700T398 729Q456 729 513 711T617 659T692 574T724 459H538Z"  />
<glyph unicode="D" horiz-adv-x="759" d="M250 160H338Q391 161 428 172T489 208T524 269T535 361Q535 459 485 506T338 554H250V160ZM64 714H371Q453 714 518 690T628 620T697 509T721 360Q721 272 697 205T628 93T517 24T371 0H64V714Z"  />
<glyph unicode="E" horiz-adv-x="685" d="M64 714H633V565H250V440H600V296H250V160H643V0H64V714Z"  />
<glyph unicode="F" horiz-adv-x="611" d="M64 714H590V565H250V419H544V275H250V0H64V714Z"  />
<glyph unicode="G" horiz-adv-x="778" d="M723 0H603L592 78Q574 52 550 35T499 6T445 -10T393 -15Q312 -15 246 14T134 93T62 211T37 357Q37 435 62 502T133 620T246 700T393 729Q448 729 503 714T604 668T679 587T716 471H530Q525 517 486 543T389 569Q344 569 313 551T261 503T232 435T223 357Q223 317 232 279T261 211T312 163T389 145Q458 145 501 174T553 253H423V391H723V0Z"  />
<glyph unicode="H" horiz-adv-x="741" d="M62 714H248V454H493V714H679V0H493V294H248V0H62V714Z"  />
<glyph unicode="I" horiz-adv-x="315" d="M64 714H250V0H64V714Z"  />
<glyph unicode="J" horiz-adv-x="593" d="M528 226Q528 -15 278 -15Q207 -15 159 4T82 59T41 144T28 253V284H203V218Q203 183 221 164T275 145Q307 145 324 165T342 238V714H528V226Z"  />
<glyph unicode="K" horiz-adv-x="741" d="M64 714H250V440L485 714H716L452 433L749 0H518L326 300L250 220V0H64V714Z"  />
<glyph unicode="L" horiz-adv-x="611" d="M64 714H250V160H583V0H64V714Z"  />
<glyph unicode="M" horiz-adv-x="926" d="M65 714H339L462 238H464L587 714H861V0H686V542H684L534 0H392L242 542H240V0H65V714Z"  />
<glyph unicode="N" horiz-adv-x="741" d="M62 714H253L501 274H503V714H678V0H487L239 445H237V0H62V714Z"  />
<glyph unicode="O" horiz-adv-x="778" d="M223 357Q223 317 232 279T261 211T312 163T389 145Q434 145 465 163T517 211T546 279T555 357Q555 397 546 435T517 503T466 551T389 569Q344 569 313 551T261 503T232 435T223 357ZM37 357Q37 435 60 502T129 620T239 700T389 729Q473 729 538 700T649 621T717 503T741 357Q741 279 718 212T649 94T539 14T389 -15Q305 -15 240 14T129 93T61 211T37 357Z"  />
<glyph unicode="P" horiz-adv-x="685" d="M250 382H375Q419 382 447 402T475 471Q475 522 447 543T375 565H250V382ZM64 714H403Q453 714 499 702T582 663T639 591T661 484Q661 418 643 371T591 295T510 252T403 238H250V0H64V714Z"  />
<glyph unicode="Q" horiz-adv-x="778" d="M453 291L523 223Q540 252 547 286T555 357Q555 397 546 435T517 503T466 551T389 569Q344 569 313 551T261 503T232 435T223 357Q223 317 232 279T261 211T312 163T389 145Q411 145 426 149L370 204L453 291ZM653 -74L555 22Q483 -15 389 -15Q305 -15 240 14T129 93T61 211T37 357Q37 435 60 502T129 620T239 700T389 729Q473 729 538 700T649 621T717 503T741 357Q741 280 719 214T652 97L738 14L653 -74Z"  />
<glyph unicode="R" horiz-adv-x="722" d="M250 404H406Q448 404 470 425T492 488Q492 528 465 546T398 565H250V404ZM64 714H428Q475 714 520 703T600 668T656 605T678 513Q678 455 651 406T566 334V332Q594 325 613 307T644 265T662 214T670 161Q671 150 672 127T676 79T685 32T700 0H516Q510 9 506 25T500 58T497 91T495 114Q493 141 489 167T474 214T444 247T391 260H250V0H64V714Z"  />
<glyph unicode="S" horiz-adv-x="667" d="M209 240Q212 177 248 153T344 129Q365 129 385 133T422 145T448 168T458 202Q458 226 441 241T394 267T329 286T253 306Q215 317 178 332T111 370T63 428T44 512Q44 570 70 611T139 679T233 717T335 729Q388 729 439 716T531 674T596 603T621 499H435Q436 523 426 539T400 566T362 580T320 585Q305 585 289 582T260 572T239 554T230 524Q230 503 247 490T294 467T361 449T437 430Q476 419 513 404T579 365T626 307T644 224Q644 156 618 110T548 37T448 -3T333 -15Q271 -15 216 -1T117 44T49 123T23 240H209Z"  />
<glyph unicode="T" horiz-adv-x="648" d="M630 554H417V0H231V554H18V714H630V554Z"  />
<glyph unicode="U" horiz-adv-x="741" d="M681 295Q681 140 607 63T370 -15Q208 -15 134 62T59 295V714H245V284Q245 215 273 180T370 145Q439 145 467 180T495 284V714H681V295Z"  />
<glyph unicode="V" horiz-adv-x="648" d="M428 0H214L-11 714H183L323 183H325L465 714H659L428 0Z"  />
<glyph unicode="W" horiz-adv-x="963" d="M766 0H580L482 492H480L382 0H193L0 714H186L287 192H289L394 714H569L674 192H676L777 714H963L766 0Z"  />
<glyph unicode="X" horiz-adv-x="704" d="M246 375L13 714H232L352 492L479 714H691L460 375L712 0H486L352 238L206 0H-8L246 375Z"  />
<glyph unicode="Y" horiz-adv-x="667" d="M427 266V0H241V266L-19 714H192L334 424L476 714H687L427 266Z"  />
<glyph unicode="Z" horiz-adv-x="667" d="M24 152L390 554H46V714H630V570L255 160H643V0H24V152Z"  />
<glyph unicode="[" horiz-adv-x="370" d="M69 729H363V585H228V-30H363V-174H69V729Z"  />
<glyph unicode="\" horiz-adv-x="407" d="M416 -15H260L-9 729H147L416 -15Z"  />
<glyph unicode="]" horiz-adv-x="370" d="M301 -174H7V-30H142V585H7V729H301V-174Z"  />
<glyph unicode="^" horiz-adv-x="600" d="M47 332L209 697H391L553 332H393L300 570L206 332H47Z"  />
<glyph unicode="_" horiz-adv-x="500" d="M0 -125V-75H500V-125H0Z"  />
<glyph unicode="`" horiz-adv-x="296" d="M242 576H122L-35 725H145L242 576Z"  />
<glyph unicode="a" horiz-adv-x="593" d="M50 359Q52 410 74 444T131 498Q166 518 208 526T296 534Q342 534 385 528T463 502T517 449T538 360V133Q538 100 540 66T558 0H387Q382 12 381 24T377 49Q344 14 299 0T206 -15Q169 -15 137 -6T80 23T43 72T29 142Q29 184 43 212T81 258T136 286T200 302T267 312T331 322Q353 327 364 336T376 370Q376 385 368 395T348 411T322 421T294 424Q221 424 209 359H50ZM199 149Q199 117 220 104T270 90Q331 90 354 126T374 243Q356 232 327 228T269 215Q240 208 220 194T199 149Z"  />
<glyph unicode="b" horiz-adv-x="630" d="M325 404Q308 404 290 398T256 375T231 332T221 265Q221 197 243 156T324 115Q352 115 371 128T403 163T420 211T426 265Q426 290 421 314T404 359T373 391T325 404ZM57 714H227V462H229Q281 534 377 534Q432 534 473 512T541 453T582 369T596 271Q596 216 583 165T541 73T469 9T364 -15Q272 -15 221 60H219V0H57V714Z"  />
<glyph unicode="c" horiz-adv-x="593" d="M395 329Q395 345 388 359T370 383T343 398T312 404Q276 404 255 390T222 355T206 306T202 251Q202 226 207 202T225 158T257 127T303 115Q348 115 371 138T400 204H565Q559 152 537 111T481 42T401 0T304 -15Q245 -15 196 4T110 58T53 142T32 251Q32 313 51 365T105 454T191 513T304 534Q352 534 396 521T476 483T533 419T560 329H395Z"  />
<glyph unicode="d" horiz-adv-x="630" d="M571 0H409V60H407Q356 -15 264 -15Q203 -15 159 9T87 73T46 164T32 271Q32 322 45 369T86 453T155 512T251 534Q346 534 399 463H401V714H571V0ZM306 404Q277 404 257 392T225 359T208 315T202 265Q202 238 207 212T225 164T257 129T306 115Q337 115 356 128T387 163T403 209T407 260Q407 288 402 314T384 360T353 392T306 404Z"  />
<glyph unicode="e" horiz-adv-x="611" d="M202 218Q204 164 234 132T318 100Q349 100 376 114T415 157H574Q562 112 537 80T477 26T401 -5T316 -15Q253 -15 201 3T111 57T53 144T32 261Q32 321 54 371T114 457T204 513T312 534Q382 534 434 510T520 442T570 342T583 218H202ZM413 313Q411 357 383 388T312 419Q267 419 239 390T202 313H413Z"  />
<glyph unicode="f" horiz-adv-x="370" d="M94 409H12V519H94Q94 575 104 612T138 672T199 704T291 714Q311 714 332 713T373 711V591Q349 594 327 594Q298 594 281 586T264 542V519H366V409H264V0H94V409Z"  />
<glyph unicode="g" horiz-adv-x="611" d="M559 63Q559 31 553 -11T521 -91T443 -155T300 -182Q255 -182 212 -176T135 -151T76 -101T45 -16H215Q221 -49 244 -61Q265 -72 306 -72Q336 -72 354 -62T381 -36T392 3T395 49V98H393Q370 62 334 42T255 22Q196 22 153 42T82 96T41 178T27 280Q27 332 42 378T86 458T157 513T255 534Q349 534 394 454H396V519H559V63ZM398 273Q398 298 393 321T375 363T344 393T296 404Q268 404 249 393T219 363T202 322T197 274Q197 251 202 229T220 190T250 163T295 152Q322 152 341 162T373 188T392 227T398 273Z"  />
<glyph unicode="h" horiz-adv-x="630" d="M57 714H227V448H229Q239 468 256 484T294 511T340 528T387 534Q452 534 489 513T545 462T569 396T574 333V0H404V251Q404 278 404 303Q404 329 397 349T372 381T319 394Q295 394 278 385T249 360T233 324T227 283V0H57V714Z"  />
<glyph unicode="i" horiz-adv-x="296" d="M233 584H63V714H233V584ZM63 519H233V0H63V519Z"  />
<glyph unicode="j" horiz-adv-x="296" d="M233 584H63V714H233V584ZM233 0Q233 -49 223 -82T192 -136T139 -165T61 -174H-25V-36H9Q35 -35 49 -26T63 12V519H233V0Z"  />
<glyph unicode="k" horiz-adv-x="593" d="M57 714H227V346L382 519H579L389 323L603 0H398L271 209L227 166V0H57V714Z"  />
<glyph unicode="l" horiz-adv-x="296" d="M63 714H233V0H63V714Z"  />
<glyph unicode="m" horiz-adv-x="926" d="M57 519H222V448H224Q247 487 286 510T373 534Q422 534 462 516T524 450Q555 492 594 513T686 534Q748 534 784 513T839 459T863 387T869 310V0H699V305Q699 347 680 370T628 394Q601 394 585 384T561 356T550 311T548 254V0H378V295Q378 341 364 367T314 394Q268 394 248 363T227 253V0H57V519Z"  />
<glyph unicode="n" horiz-adv-x="630" d="M57 519H222V448H224Q236 468 254 484T294 511T340 528T387 534Q452 534 489 513T545 462T569 396T574 333V0H404V251Q404 278 404 303Q404 329 397 349T372 381T319 394Q295 394 278 385T249 360T233 324T227 283V0H57V519Z"  />
<glyph unicode="o" horiz-adv-x="611" d="M32 259Q32 317 52 367T108 455T194 513T305 534Q365 534 415 513T502 455T559 368T579 259Q579 200 559 150T503 64T416 6T305 -15Q245 -15 195 6T108 63T52 150T32 259ZM202 259Q202 234 207 209T224 162T255 128T305 115Q335 115 355 128T387 162T404 208T409 259Q409 284 404 309T387 356T355 390T305 404Q275 404 256 391T224 356T207 310T202 259Z"  />
<glyph unicode="p" horiz-adv-x="630" d="M57 519H219V459H221Q272 534 364 534Q425 534 469 510T541 446T582 355T596 248Q596 197 583 150T542 66T473 7T377 -15Q282 -15 229 56H227V-174H57V519ZM325 404Q308 404 290 398T256 375T231 332T221 265Q221 197 243 156T324 115Q352 115 371 128T403 163T420 211T426 265Q426 290 421 314T404 359T373 391T325 404Z"  />
<glyph unicode="q" horiz-adv-x="630" d="M571 -174H401V57H399Q346 -15 251 -15Q196 -15 155 7T87 66T46 150T32 248Q32 303 45 354T87 446T159 510T264 534Q356 534 407 459H409V519H571V-174ZM202 254Q202 229 207 205T224 160T255 128T303 115Q320 115 338 121T372 144T397 187T407 255Q407 281 403 307T387 355T356 390T306 404Q277 404 257 391T225 356T208 308T202 254Z"  />
<glyph unicode="r" horiz-adv-x="426" d="M63 519H228V428H230Q249 478 290 503T386 529Q396 529 406 528T426 525V370Q409 375 394 377T361 380Q329 380 306 370T266 343T241 304T233 257V0H63V519Z"  />
<glyph unicode="s" horiz-adv-x="556" d="M189 171Q189 151 196 137T217 113Q229 104 245 100T280 95Q292 95 306 98T332 107T352 124T360 150Q360 165 351 174T330 190T303 199T277 205Q237 215 195 223T117 247T59 293T36 375Q36 422 58 452T116 501T193 526T273 534Q316 534 357 527T433 501T488 450T512 366H355Q355 397 333 411Q313 424 279 424Q268 424 256 423T232 418T214 406T206 385Q206 367 225 355T272 336T335 322T398 310Q437 302 462 285T503 248T524 207T530 170Q530 118 508 83T450 26T370 -5T281 -15Q235 -15 190 -7T110 23T52 81T27 171H189Z"  />
<glyph unicode="t" horiz-adv-x="389" d="M370 409H265V173Q265 142 281 133T326 123Q337 123 348 124T370 125V0Q347 -1 324 -3T277 -5Q223 -5 188 4T132 34T103 90T95 178V409H9V519H95V676H265V519H370V409Z"  />
<glyph unicode="u" horiz-adv-x="630" d="M573 0H408V71H406Q382 31 338 8T248 -15Q192 -15 155 0T96 45T65 115T56 207V519H226V218Q226 166 247 146T310 125Q324 125 340 130T370 148T393 184T403 241V519H573V0Z"  />
<glyph unicode="v" horiz-adv-x="537" d="M366 0H170L-3 519H174L269 176H271L367 519H540L366 0Z"  />
<glyph unicode="w" horiz-adv-x="833" d="M671 0H499L417 345H415L334 0H162L0 519H172L259 183H261L335 519H497L573 184H575L660 519H833L671 0Z"  />
<glyph unicode="x" horiz-adv-x="537" d="M173 272L8 519H196L269 395L342 519H522L360 275L544 0H356L266 150L181 0H-7L173 272Z"  />
<glyph unicode="y" horiz-adv-x="537" d="M340 -46Q325 -89 305 -114T259 -152T200 -170T123 -174H43V-36H102Q131 -36 150 -21T170 22Q170 32 165 51T152 90T138 128T127 158L-7 519H173L271 181H273L371 519H545L340 -46Z"  />
<glyph unicode="z" horiz-adv-x="537" d="M22 132L281 389H43V519H497V390L238 130H516V0H22V132Z"  />
<glyph unicode="{" horiz-adv-x="370" d="M356 609H315Q297 609 286 603T270 587T264 566T262 544V380Q262 351 250 333T220 304T183 289T147 284V281Q163 280 182 277T219 263T249 232T262 176V11Q262 1 263 -10T270 -31T286 -47T315 -54H356V-174H238Q210 -174 186 -166T143 -140T114 -94T103 -26V147Q103 171 93 184T68 205T38 215T14 217V337Q23 337 38 339T67 347T92 365T103 398V586Q103 626 113 653T142 698T185 722T238 729H356V609Z"  />
<glyph unicode="|" horiz-adv-x="222" d="M39 786H183V-214H39V786Z"  />
<glyph unicode="}" horiz-adv-x="370" d="M14 -54H55Q73 -54 84 -48T100 -32T106 -11T108 11V176Q108 212 120 232T150 262T187 276T223 281V284Q207 285 188 289T151 303T121 332T108 380V544Q108 554 107 565T100 586T84 602T55 609H14V729H132Q160 729 184 722T227 698T256 654T267 586V398Q267 377 277 365T302 347T332 339T356 337V217Q347 217 332 215T303 206T278 185T267 147V-26Q267 -66 257 -94T228 -140T185 -166T132 -174H14V-54Z"  />
<glyph unicode="~" horiz-adv-x="600" d="M531 233Q520 217 508 202T481 174T448 155T406 147Q378 147 354 156T304 180Q280 194 252 204T189 215Q172 215 160 209T137 192T119 169T105 143L69 273Q77 289 88 304T115 332T149 351T194 359Q220 359 248 350T305 327Q333 315 360 303T407 291Q422 291 434 297T457 314T477 337T495 363L531 233Z"  />
<glyph unicode="&#xA0;" horiz-adv-x="315" />
<glyph unicode="&#xA1;" horiz-adv-x="296" d="M241 361H55V547H241V361ZM61 10L107 311H190L236 10V-167H61V10Z"  />
<glyph unicode="&#xA2;" horiz-adv-x="630" d="M299 -13Q244 -10 198 10T119 65T68 147T49 251Q49 310 66 360T116 447T194 506T299 533V612H345V533Q389 530 429 516T500 476T552 414T577 329H412Q411 358 392 377T345 401V118Q377 124 394 146T417 204H582Q576 155 556 116T505 50T433 6T345 -13V-105H299V-13ZM299 401Q273 395 258 380T234 344T222 299T219 251Q219 228 223 207T237 167T262 135T299 118V401Z"  />
<glyph unicode="&#xA3;" horiz-adv-x="630" d="M51 87Q69 99 88 114T123 149T149 190T160 235Q160 251 157 268T147 300H41V405H108Q91 428 78 457T65 518Q65 573 88 613T147 678T230 716T325 729Q384 729 432 714T515 667T568 589T584 481H419Q420 501 416 519T403 552T377 576T338 585Q300 585 276 565T251 506Q251 495 255 481T265 453T278 426T291 405H410V300H321Q328 280 328 258Q328 226 313 196T259 136L261 134Q277 145 296 149T336 153Q362 153 393 144T454 134Q486 134 504 145T543 179L612 56Q569 12 527 -1T438 -15Q413 -15 387 -9T334 4T280 18T225 24Q196 24 169 12T119 -15L51 87Z"  />
<glyph unicode="&#xA4;" horiz-adv-x="630" d="M194 350Q194 320 203 295T229 252T268 225T315 215Q340 215 362 224T400 252T426 295T436 350Q436 380 427 405T401 448T362 475T315 485Q290 485 268 476T230 448T204 405T194 350ZM58 148L102 193Q77 226 64 265T50 350Q50 393 63 431T99 504L54 548L114 608L159 564Q191 588 230 601T315 615Q360 615 399 602T471 564L514 608L574 548L530 504Q553 472 566 433T580 350Q580 306 567 267T530 196L574 152L514 92L470 136Q438 112 399 99T315 85Q272 85 234 97T163 133L118 88L58 148Z"  />
<glyph unicode="&#xA5;" horiz-adv-x="630" d="M481 413H584V308H428L408 267V236H584V131H408V0H222V131H46V236H222V267L202 308H46V413H150L0 714H186L314 413H316L444 714H630L481 413Z"  />
<glyph unicode="&#xA6;" horiz-adv-x="222" d="M183 411H39V661H183V411ZM39 161H183V-89H39V161Z"  />
<glyph unicode="&#xA7;" horiz-adv-x="630" d="M397 534Q397 567 376 586Q356 604 323 604Q300 604 281 591T262 552Q262 538 269 528T288 509T311 495T335 483L501 402Q542 378 569 348T596 266Q596 215 570 173T493 116Q543 74 543 6Q543 -42 524 -77T473 -136T400 -171T316 -182Q267 -182 224 -171T150 -135T100 -72T81 22H228Q228 3 235 -11T253 -37Q276 -57 313 -57Q343 -57 363 -41T383 5Q383 30 357 49T293 85T209 121T126 164T61 222T35 303Q35 360 63 398T140 455Q120 478 111 501T102 555Q102 599 122 631T174 686T244 718T321 729Q367 729 407 717T477 681T525 620T544 534H397ZM407 185Q418 188 430 196T447 216Q457 236 446 257T400 297L249 367Q234 375 221 375Q208 375 199 369T185 353T179 329Q177 309 189 298T220 275L407 185Z"  />
<glyph unicode="&#xA8;" horiz-adv-x="296" d="M-33 713H117V588H-33V713ZM180 588V713H330V588H180Z"  />
<glyph unicode="&#xA9;" horiz-adv-x="800" d="M593 303Q588 264 572 235T531 186T478 156T415 146Q368 146 330 162T264 208T222 276T207 360Q207 406 221 445T262 513T327 558T413 575Q447 575 476 565T529 536T567 488T589 422H499Q492 454 468 467T413 480Q370 480 347 448T324 362Q324 310 349 276T415 241Q450 241 473 255T499 303H593ZM400 80Q453 80 500 100T583 157T640 245T661 357Q661 418 640 469T584 556T501 613T400 634Q346 634 299 614T216 557T160 469T139 357Q139 296 159 245T215 158T298 101T400 80ZM400 -15Q325 -15 256 10T132 82T46 199T14 357Q14 445 46 514T132 631T255 704T400 729Q475 729 544 704T667 632T753 515T786 357Q786 268 754 199T668 83T545 10T400 -15Z"  />
<glyph unicode="&#xAA;" horiz-adv-x="377" d="M14 592Q15 630 29 651T66 685Q89 696 118 701T188 706Q225 706 257 702T313 686T350 652T364 593V454Q364 434 365 412T377 362H248Q243 376 241 391Q226 381 213 374T185 362Q159 353 130 353Q70 353 35 376T0 447Q0 492 20 513T70 546Q101 557 137 560T211 570Q225 573 232 579T240 599Q240 613 222 619T187 626Q140 626 132 592H14ZM239 520Q221 513 205 510T171 503Q152 499 139 491T125 463Q125 448 139 441T172 433Q239 433 239 501V520Z"  />
<glyph unicode="&#xAB;" horiz-adv-x="444" d="M240 346L399 474V337L313 270L399 204V67L240 194V346ZM45 346L204 474V337L118 270L204 204V67L45 194V346Z"  />
<glyph unicode="&#xAC;" horiz-adv-x="600" d="M408 305H48V449H552V120H408V305Z"  />
<glyph unicode="&#xAD;" horiz-adv-x="407" d="M48 200V344H359V200H48Z"  />
<glyph unicode="&#xAE;" horiz-adv-x="800" d="M400 80Q453 80 500 100T583 157T640 245T661 357Q661 418 640 469T584 556T501 613T400 634Q346 634 299 614T216 557T160 469T139 357Q139 296 159 245T215 158T298 101T400 80ZM400 -15Q325 -15 256 10T132 82T46 199T14 357Q14 445 46 514T132 631T255 704T400 729Q475 729 544 704T667 632T753 515T786 357Q786 268 754 199T668 83T545 10T400 -15ZM417 395Q443 395 457 404T472 446Q472 461 465 469T446 481T421 487T397 488H346V395H417ZM346 156H248V559H399Q439 559 470 554T524 534T558 496T570 436Q570 380 539 356T455 330L558 156H463L371 324H346V156Z"  />
<glyph unicode="&#xAF;" horiz-adv-x="296" d="M-14 607V693H311V607H-14Z"  />
<glyph unicode="&#xB0;" horiz-adv-x="400" d="M200 457Q237 457 258 483T280 546Q280 583 259 609T200 635Q163 635 142 609T120 546Q120 509 141 483T200 457ZM40 546Q40 579 52 608T87 659T138 693T200 706Q233 706 262 694T313 659T347 608T360 546Q360 513 348 484T313 433T262 399T200 386Q167 386 138 398T87 433T53 484T40 546Z"  />
<glyph unicode="&#xB1;" horiz-adv-x="600" d="M48 132H552V-12H48V132ZM228 518H372V417H552V273H372V172H228V273H48V417H228V518Z"  />
<glyph unicode="&#xB2;" horiz-adv-x="378" d="M6 278Q6 323 24 360T77 424Q106 447 137 464T195 497Q221 513 237 528T254 559Q254 583 239 597T198 611Q160 611 146 586T130 527H7Q5 610 53 657Q76 680 111 693T197 706Q235 706 268 698T326 672T365 629T379 568Q379 541 370 521T343 484T304 454T256 428Q224 412 206 401T177 373H371V278H6Z"  />
<glyph unicode="&#xB3;" horiz-adv-x="378" d="M167 537Q175 537 182 537T196 536Q205 536 216 537T238 543T255 555T262 573Q262 590 244 600T205 611Q177 611 160 596T143 555H18Q20 631 70 668T204 706Q239 706 272 700T330 679T371 641T387 582Q387 553 370 530T318 502V500Q357 495 376 471T395 405Q395 369 379 343T337 301T276 277T204 269Q120 269 65 302T5 411V434H130Q130 400 149 382Q168 364 203 364Q215 364 226 366T248 374T264 387T270 405Q270 435 248 445T196 456Q189 456 182 456T167 455V537Z"  />
<glyph unicode="&#xB4;" horiz-adv-x="296" d="M322 725L165 576H45L142 725H322Z"  />
<glyph unicode="&#xB5;" horiz-adv-x="630" d="M573 0H408V71H406Q382 31 338 8T248 -15Q235 -15 226 -9V-174H56V519H226V218Q226 166 247 146T310 125Q324 125 340 130T370 148T393 184T403 241V519H573V0Z"  />
<glyph unicode="&#xB6;" horiz-adv-x="620" d="M206 365Q97 365 40 410T-17 536Q-17 590 2 624T54 679T132 706T229 714H543V-169H423V624H326V-169H206V365Z"  />
<glyph unicode="&#xB7;" horiz-adv-x="315" d="M65 286Q65 305 72 322T92 351T122 371T158 379Q177 379 194 372T223 352T243 322T251 286Q251 267 244 250T224 221T194 201T158 193Q139 193 122 200T93 220T73 250T65 286Z"  />
<glyph unicode="&#xB8;" horiz-adv-x="296" d="M188 0L148 -60L150 -62Q160 -59 169 -58T190 -57Q204 -57 219 -61T246 -74T267 -99T275 -137Q275 -164 265 -182T238 -212T197 -229T147 -234Q114 -234 84 -226T29 -203L48 -158Q69 -168 89 -172T130 -177Q156 -177 168 -169T181 -142Q181 -104 138 -104Q127 -104 118 -106T98 -111L76 -92L133 0H188Z"  />
<glyph unicode="&#xB9;" horiz-adv-x="378" d="M54 523V613Q78 613 101 617T143 630T174 656T188 697H288V278H163V523H54Z"  />
<glyph unicode="&#xBA;" horiz-adv-x="387" d="M193 353Q101 353 50 401T-2 529Q-2 609 49 657T193 706Q286 706 337 658T389 529Q389 450 338 402T193 353ZM193 448Q214 448 227 456T249 476T260 502T264 529Q264 542 261 556T249 583T228 603T193 611Q173 611 160 603T138 583T127 557T123 529Q123 516 126 502T138 476T159 456T193 448Z"  />
<glyph unicode="&#xBB;" horiz-adv-x="444" d="M204 195L45 67V204L131 271L45 337V474L204 347V195ZM399 195L240 67V204L326 271L240 337V474L399 347V195Z"  />
<glyph unicode="&#xBC;" horiz-adv-x="945" d="M730 179V302L624 179H730ZM919 179V89H855V0H729V89H530V188L733 419H855V179H919ZM26 523V613Q50 613 73 617T115 630T146 656T160 697H260V278H135V523H26ZM199 -27L610 724H709L298 -27H199Z"  />
<glyph unicode="&#xBD;" horiz-adv-x="945" d="M557 0Q557 45 575 82T628 146Q657 169 688 186T746 219Q772 235 788 250T805 281Q805 305 790 319T749 333Q711 333 697 308T681 249H556Q556 332 604 379Q627 402 662 415T748 428Q786 428 819 420T877 394T916 351T930 290Q930 263 921 243T894 206T855 176T807 150Q775 134 757 123T728 95H922V0H557ZM15 523V613Q39 613 62 617T104 630T135 656T149 697H249V278H124V523H15ZM174 -27L585 724H684L273 -27H174Z"  />
<glyph unicode="&#xBE;" horiz-adv-x="945" d="M741 179V302L635 179H741ZM930 179V89H866V0H740V89H541V188L744 419H866V179H930ZM253 -27L664 724H763L352 -27H253ZM177 535Q185 535 192 535T206 534Q215 534 226 535T248 541T265 553T272 573Q272 590 254 600T215 611Q187 611 170 596T153 555H28Q30 631 80 668T214 706Q249 706 282 700T340 679T381 641T397 582Q397 553 380 530T328 502V500Q367 495 386 471T405 405Q405 369 389 343T347 301T286 277T214 269Q130 269 75 302T15 411V434H140Q140 400 159 382Q178 364 213 364Q225 364 236 366T258 374T274 387T280 405Q280 419 274 428T258 443T234 451T206 454Q199 454 192 454T177 453V535Z"  />
<glyph unicode="&#xBF;" horiz-adv-x="574" d="M392 361H206V547H392V361ZM543 67Q542 8 523 -38T470 -117T387 -165T281 -182Q234 -182 189 -170T109 -132T53 -68T31 22Q31 58 39 84T64 130T102 167T154 202Q173 215 186 225T206 246T217 273T220 311H378V261Q378 232 371 211T352 173T326 144T297 122Q282 111 268 102T242 81T224 56T217 23Q217 -6 236 -22T282 -38Q324 -38 345 -15T368 48V67H543Z"  />
<glyph unicode="&#xC0;" horiz-adv-x="704" d="M258 714H447L714 0H520L476 128H227L182 0H-9L258 714ZM270 266H432L353 516H351L270 266ZM433 762H313L156 911H336L433 762Z"  />
<glyph unicode="&#xC1;" horiz-adv-x="704" d="M258 714H447L714 0H520L476 128H227L182 0H-9L258 714ZM270 266H432L353 516H351L270 266ZM546 911L389 762H269L366 911H546Z"  />
<glyph unicode="&#xC2;" horiz-adv-x="704" d="M258 714H447L714 0H520L476 128H227L182 0H-9L258 714ZM270 266H432L353 516H351L270 266ZM292 762H164L276 911H428L540 762H412L352 842L292 762Z"  />
<glyph unicode="&#xC3;" horiz-adv-x="704" d="M258 714H447L714 0H520L476 128H227L182 0H-9L258 714ZM270 266H432L353 516H351L270 266ZM545 904Q542 878 534 855T511 815T475 788T426 777Q403 777 383 782T345 795Q327 802 311 807T281 813Q264 813 253 800T237 768H166Q169 792 178 816T203 860T239 892T287 904Q307 904 327 898T367 884Q386 876 403 870T432 863Q449 863 459 874T474 904H545Z"  />
<glyph unicode="&#xC4;" horiz-adv-x="704" d="M258 714H447L714 0H520L476 128H227L182 0H-9L258 714ZM270 266H432L353 516H351L270 266ZM171 899H321V774H171V899ZM384 774V899H534V774H384Z"  />
<glyph unicode="&#xC5;" horiz-adv-x="704" d="M258 714H447L714 0H520L476 128H227L182 0H-9L258 714ZM270 266H432L353 516H351L270 266ZM352 794Q374 794 389 809T404 846Q404 869 389 883T352 898Q330 898 315 884T300 846Q300 824 315 809T352 794ZM352 742Q330 742 309 749T274 771T252 805T245 846Q245 868 253 888T275 922T310 943T352 950Q374 950 394 943T428 923T451 889T459 846Q459 824 451 805T429 771T394 749T352 742Z"  />
<glyph unicode="&#xC6;" horiz-adv-x="1019" d="M320 714H968V565H640V440H946V296H640V160H977V0H460V128H242L184 0H-14L320 714ZM298 266H460V565H428L298 266Z"  />
<glyph unicode="&#xC7;" horiz-adv-x="759" d="M538 459Q530 513 492 541T394 569Q349 569 318 551T266 503T237 435T228 357Q228 317 237 279T266 211T317 163T394 145Q460 145 496 180T538 277H724Q720 208 694 154T625 62T524 4Q470 -13 407 -15L377 -60L379 -62Q389 -59 398 -58T419 -57Q433 -57 448 -61T475 -74T496 -99T504 -137Q504 -164 494 -182T467 -212T426 -229T376 -234Q343 -234 313 -226T258 -203L277 -158Q298 -168 318 -172T359 -177Q385 -177 397 -169T410 -142Q410 -104 367 -104Q356 -104 347 -106T327 -111L305 -92L354 -13Q298 -7 251 14Q185 43 139 93T67 211T42 357Q42 435 67 502T138 620T251 700T398 729Q456 729 513 711T617 659T692 574T724 459H538Z"  />
<glyph unicode="&#xC8;" horiz-adv-x="685" d="M64 714H633V565H250V440H600V296H250V160H643V0H64V714ZM452 762H332L175 911H355L452 762Z"  />
<glyph unicode="&#xC9;" horiz-adv-x="685" d="M64 714H633V565H250V440H600V296H250V160H643V0H64V714ZM555 911L398 762H278L375 911H555Z"  />
<glyph unicode="&#xCA;" horiz-adv-x="685" d="M64 714H633V565H250V440H600V296H250V160H643V0H64V714ZM286 762H158L270 911H422L534 762H406L346 842L286 762Z"  />
<glyph unicode="&#xCB;" horiz-adv-x="685" d="M64 714H633V565H250V440H600V296H250V160H643V0H64V714ZM168 899H318V774H168V899ZM381 774V899H531V774H381Z"  />
<glyph unicode="&#xCC;" horiz-adv-x="315" d="M64 714H250V0H64V714ZM249 762H129L-28 911H152L249 762Z"  />
<glyph unicode="&#xCD;" horiz-adv-x="315" d="M64 714H250V0H64V714ZM342 911L185 762H65L162 911H342Z"  />
<glyph unicode="&#xCE;" horiz-adv-x="315" d="M64 714H250V0H64V714ZM97 762H-31L81 911H233L345 762H217L157 842L97 762Z"  />
<glyph unicode="&#xCF;" horiz-adv-x="315" d="M64 714H250V0H64V714ZM-24 899H126V774H-24V899ZM189 774V899H339V774H189Z"  />
<glyph unicode="&#xD0;" horiz-adv-x="759" d="M64 296H-8V440H64V714H371Q453 714 518 690T628 620T697 509T721 360Q721 272 697 205T628 93T517 24T371 0H64V296ZM250 440H408V296H250V160H338Q391 161 428 172T489 208T524 269T535 361Q535 459 485 506T338 554H250V440Z"  />
<glyph unicode="&#xD1;" horiz-adv-x="741" d="M62 714H253L501 274H503V714H678V0H487L239 445H237V0H62V714ZM557 904Q554 878 546 855T523 815T487 788T438 777Q415 777 395 782T357 795Q339 802 323 807T293 813Q276 813 265 800T249 768H178Q181 792 190 816T215 860T251 892T299 904Q319 904 339 898T379 884Q398 876 415 870T444 863Q461 863 471 874T486 904H557Z"  />
<glyph unicode="&#xD2;" horiz-adv-x="778" d="M223 357Q223 317 232 279T261 211T312 163T389 145Q434 145 465 163T517 211T546 279T555 357Q555 397 546 435T517 503T466 551T389 569Q344 569 313 551T261 503T232 435T223 357ZM37 357Q37 435 60 502T129 620T239 700T389 729Q473 729 538 700T649 621T717 503T741 357Q741 279 718 212T649 94T539 14T389 -15Q305 -15 240 14T129 93T61 211T37 357ZM462 762H342L185 911H365L462 762Z"  />
<glyph unicode="&#xD3;" horiz-adv-x="778" d="M223 357Q223 317 232 279T261 211T312 163T389 145Q434 145 465 163T517 211T546 279T555 357Q555 397 546 435T517 503T466 551T389 569Q344 569 313 551T261 503T232 435T223 357ZM37 357Q37 435 60 502T129 620T239 700T389 729Q473 729 538 700T649 621T717 503T741 357Q741 279 718 212T649 94T539 14T389 -15Q305 -15 240 14T129 93T61 211T37 357ZM591 911L434 762H314L411 911H591Z"  />
<glyph unicode="&#xD4;" horiz-adv-x="778" d="M223 357Q223 317 232 279T261 211T312 163T389 145Q434 145 465 163T517 211T546 279T555 357Q555 397 546 435T517 503T466 551T389 569Q344 569 313 551T261 503T232 435T223 357ZM37 357Q37 435 60 502T129 620T239 700T389 729Q473 729 538 700T649 621T717 503T741 357Q741 279 718 212T649 94T539 14T389 -15Q305 -15 240 14T129 93T61 211T37 357ZM329 762H201L313 911H465L577 762H449L389 842L329 762Z"  />
<glyph unicode="&#xD5;" horiz-adv-x="778" d="M223 357Q223 317 232 279T261 211T312 163T389 145Q434 145 465 163T517 211T546 279T555 357Q555 397 546 435T517 503T466 551T389 569Q344 569 313 551T261 503T232 435T223 357ZM37 357Q37 435 60 502T129 620T239 700T389 729Q473 729 538 700T649 621T717 503T741 357Q741 279 718 212T649 94T539 14T389 -15Q305 -15 240 14T129 93T61 211T37 357ZM578 904Q575 878 567 855T544 815T508 788T459 777Q436 777 416 782T378 795Q360 802 344 807T314 813Q297 813 286 800T270 768H199Q202 792 211 816T236 860T272 892T320 904Q340 904 360 898T400 884Q419 876 436 870T465 863Q482 863 492 874T507 904H578Z"  />
<glyph unicode="&#xD6;" horiz-adv-x="778" d="M223 357Q223 317 232 279T261 211T312 163T389 145Q434 145 465 163T517 211T546 279T555 357Q555 397 546 435T517 503T466 551T389 569Q344 569 313 551T261 503T232 435T223 357ZM37 357Q37 435 60 502T129 620T239 700T389 729Q473 729 538 700T649 621T717 503T741 357Q741 279 718 212T649 94T539 14T389 -15Q305 -15 240 14T129 93T61 211T37 357ZM210 899H360V774H210V899ZM423 774V899H573V774H423Z"  />
<glyph unicode="&#xD7;" horiz-adv-x="600" d="M54 397L156 499L300 355L444 499L546 397L402 253L546 109L444 7L300 151L156 7L54 109L198 253L54 397Z"  />
<glyph unicode="&#xD8;" horiz-adv-x="778" d="M751 697L664 602Q702 553 721 491T741 357Q741 279 718 212T649 94T539 14T389 -15Q321 -15 266 3T168 57L79 -40L22 10L114 111Q76 159 57 222T37 357Q37 435 60 502T129 620T239 700T389 729Q457 729 512 711T611 657L693 747L751 697ZM284 185Q304 166 330 156T389 145Q434 145 465 163T517 211T546 279T555 357Q555 384 551 410T537 462L284 185ZM495 529Q476 548 450 558T389 569Q344 569 313 551T261 503T232 435T223 357Q223 299 241 251L495 529Z"  />
<glyph unicode="&#xD9;" horiz-adv-x="741" d="M681 295Q681 140 607 63T370 -15Q208 -15 134 62T59 295V714H245V284Q245 215 273 180T370 145Q439 145 467 180T495 284V714H681V295ZM449 762H329L172 911H352L449 762Z"  />
<glyph unicode="&#xDA;" horiz-adv-x="741" d="M681 295Q681 140 607 63T370 -15Q208 -15 134 62T59 295V714H245V284Q245 215 273 180T370 145Q439 145 467 180T495 284V714H681V295ZM582 911L425 762H305L402 911H582Z"  />
<glyph unicode="&#xDB;" horiz-adv-x="741" d="M681 295Q681 140 607 63T370 -15Q208 -15 134 62T59 295V714H245V284Q245 215 273 180T370 145Q439 145 467 180T495 284V714H681V295ZM312 762H184L296 911H448L560 762H432L372 842L312 762Z"  />
<glyph unicode="&#xDC;" horiz-adv-x="741" d="M681 295Q681 140 607 63T370 -15Q208 -15 134 62T59 295V714H245V284Q245 215 273 180T370 145Q439 145 467 180T495 284V714H681V295ZM188 899H338V774H188V899ZM401 774V899H551V774H401Z"  />
<glyph unicode="&#xDD;" horiz-adv-x="667" d="M427 266V0H241V266L-19 714H192L334 424L476 714H687L427 266ZM549 911L392 762H272L369 911H549Z"  />
<glyph unicode="&#xDE;" horiz-adv-x="685" d="M250 290H375Q419 290 447 310T475 379Q475 430 447 451T375 473H250V290ZM250 714V622H403Q453 622 499 610T582 571T639 499T661 392Q661 326 643 279T591 203T510 160T403 146H250V0H64V714H250Z"  />
<glyph unicode="&#xDF;" horiz-adv-x="630" d="M57 502Q57 548 71 589T116 661T194 710T308 729Q353 729 396 718T474 683T530 622T552 534Q552 490 530 451T465 397V395Q495 389 519 372T559 331T583 279T592 220Q592 169 575 127T528 56T455 11T361 -5Q340 -5 319 -4T277 0V129Q288 127 298 126T320 125Q369 125 395 155T422 234Q422 267 411 288T379 321T333 337T279 339V440Q299 438 319 441T356 453T383 478T393 520Q393 558 371 578T314 599Q283 599 266 590T240 563T229 523T227 471V0H57V502Z"  />
<glyph unicode="&#xE0;" horiz-adv-x="593" d="M50 359Q52 410 74 444T131 498Q166 518 208 526T296 534Q342 534 385 528T463 502T517 449T538 360V133Q538 100 540 66T558 0H387Q382 12 381 24T377 49Q344 14 299 0T206 -15Q169 -15 137 -6T80 23T43 72T29 142Q29 184 43 212T81 258T136 286T200 302T267 312T331 322Q353 327 364 336T376 370Q376 385 368 395T348 411T322 421T294 424Q221 424 209 359H50ZM199 149Q199 117 220 104T270 90Q331 90 354 126T374 243Q356 232 327 228T269 215Q240 208 220 194T199 149ZM418 576H298L141 725H321L418 576Z"  />
<glyph unicode="&#xE1;" horiz-adv-x="593" d="M50 359Q52 410 74 444T131 498Q166 518 208 526T296 534Q342 534 385 528T463 502T517 449T538 360V133Q538 100 540 66T558 0H387Q382 12 381 24T377 49Q344 14 299 0T206 -15Q169 -15 137 -6T80 23T43 72T29 142Q29 184 43 212T81 258T136 286T200 302T267 312T331 322Q353 327 364 336T376 370Q376 385 368 395T348 411T322 421T294 424Q221 424 209 359H50ZM199 149Q199 117 220 104T270 90Q331 90 354 126T374 243Q356 232 327 228T269 215Q240 208 220 194T199 149ZM507 725L350 576H230L327 725H507Z"  />
<glyph unicode="&#xE2;" horiz-adv-x="593" d="M50 359Q52 410 74 444T131 498Q166 518 208 526T296 534Q342 534 385 528T463 502T517 449T538 360V133Q538 100 540 66T558 0H387Q382 12 381 24T377 49Q344 14 299 0T206 -15Q169 -15 137 -6T80 23T43 72T29 142Q29 184 43 212T81 258T136 286T200 302T267 312T331 322Q353 327 364 336T376 370Q376 385 368 395T348 411T322 421T294 424Q221 424 209 359H50ZM199 149Q199 117 220 104T270 90Q331 90 354 126T374 243Q356 232 327 228T269 215Q240 208 220 194T199 149ZM238 576H110L222 725H374L486 576H358L298 656L238 576Z"  />
<glyph unicode="&#xE3;" horiz-adv-x="593" d="M50 359Q52 410 74 444T131 498Q166 518 208 526T296 534Q342 534 385 528T463 502T517 449T538 360V133Q538 100 540 66T558 0H387Q382 12 381 24T377 49Q344 14 299 0T206 -15Q169 -15 137 -6T80 23T43 72T29 142Q29 184 43 212T81 258T136 286T200 302T267 312T331 322Q353 327 364 336T376 370Q376 385 368 395T348 411T322 421T294 424Q221 424 209 359H50ZM199 149Q199 117 220 104T270 90Q331 90 354 126T374 243Q356 232 327 228T269 215Q240 208 220 194T199 149ZM488 718Q485 692 477 669T454 629T418 602T369 591Q346 591 326 596T288 609Q270 616 254 621T224 627Q207 627 196 614T180 582H109Q112 606 121 630T146 674T182 706T230 718Q250 718 270 712T310 698Q329 690 346 684T375 677Q392 677 402 688T417 718H488Z"  />
<glyph unicode="&#xE4;" horiz-adv-x="593" d="M50 359Q52 410 74 444T131 498Q166 518 208 526T296 534Q342 534 385 528T463 502T517 449T538 360V133Q538 100 540 66T558 0H387Q382 12 381 24T377 49Q344 14 299 0T206 -15Q169 -15 137 -6T80 23T43 72T29 142Q29 184 43 212T81 258T136 286T200 302T267 312T331 322Q353 327 364 336T376 370Q376 385 368 395T348 411T322 421T294 424Q221 424 209 359H50ZM199 149Q199 117 220 104T270 90Q331 90 354 126T374 243Q356 232 327 228T269 215Q240 208 220 194T199 149ZM117 713H267V588H117V713ZM330 588V713H480V588H330Z"  />
<glyph unicode="&#xE5;" horiz-adv-x="593" d="M50 359Q52 410 74 444T131 498Q166 518 208 526T296 534Q342 534 385 528T463 502T517 449T538 360V133Q538 100 540 66T558 0H387Q382 12 381 24T377 49Q344 14 299 0T206 -15Q169 -15 137 -6T80 23T43 72T29 142Q29 184 43 212T81 258T136 286T200 302T267 312T331 322Q353 327 364 336T376 370Q376 385 368 395T348 411T322 421T294 424Q221 424 209 359H50ZM199 149Q199 117 220 104T270 90Q331 90 354 126T374 243Q356 232 327 228T269 215Q240 208 220 194T199 149ZM298 616Q320 616 335 631T350 668Q350 691 335 705T298 720Q276 720 261 706T246 668Q246 646 261 631T298 616ZM298 564Q276 564 255 571T220 593T198 627T191 668Q191 690 199 710T221 744T256 765T298 772Q320 772 340 765T374 745T397 711T405 668Q405 646 397 627T375 593T340 571T298 564Z"  />
<glyph unicode="&#xE6;" horiz-adv-x="944" d="M902 157Q891 117 867 86T810 31Q777 8 738 -3T656 -15Q629 -15 601 -11T547 2T497 27T456 64Q429 42 403 27T348 3T287 -11T216 -15Q175 -15 141 -6T82 23T43 72T29 142Q29 184 43 212T81 258T136 286T200 302T267 312T331 322Q351 328 362 333T380 343T388 354T390 367Q390 385 383 396T362 413T332 422T294 424Q221 424 209 359H50Q52 410 74 444T131 498Q166 518 208 526T296 534Q321 534 347 531T399 521T447 501T485 469Q517 503 559 518T647 534Q713 534 764 508T850 439T899 338T910 218H537Q537 195 543 174T562 137T595 110T642 100Q682 100 705 114T742 157H902ZM280 90Q325 90 347 107T379 149T388 200T389 243Q372 229 341 225T277 213Q245 207 222 194T199 148Q199 131 207 120T227 102T253 93T280 90ZM740 313Q740 358 715 388T641 419Q618 419 600 410T568 387T547 353T537 313H740Z"  />
<glyph unicode="&#xE7;" horiz-adv-x="593" d="M395 329Q395 345 388 359T370 383T343 398T312 404Q276 404 255 390T222 355T206 306T202 251Q202 226 207 202T225 158T257 127T303 115Q348 115 371 138T400 204H565Q559 152 537 111T481 42T401 0Q361 -13 317 -15L287 -60L289 -62Q299 -59 308 -58T329 -57Q343 -57 358 -61T385 -74T406 -99T414 -137Q414 -164 404 -182T377 -212T336 -229T286 -234Q253 -234 223 -226T168 -203L187 -158Q208 -168 228 -172T269 -177Q295 -177 307 -169T320 -142Q320 -104 277 -104Q266 -104 257 -106T237 -111L215 -92L264 -13Q228 -8 195 4Q146 23 110 58T53 142T32 251Q32 313 51 365T105 454T191 513T304 534Q352 534 396 521T476 483T533 419T560 329H395Z"  />
<glyph unicode="&#xE8;" horiz-adv-x="611" d="M202 218Q204 164 234 132T318 100Q349 100 376 114T415 157H574Q562 112 537 80T477 26T401 -5T316 -15Q253 -15 201 3T111 57T53 144T32 261Q32 321 54 371T114 457T204 513T312 534Q382 534 434 510T520 442T570 342T583 218H202ZM413 313Q411 357 383 388T312 419Q267 419 239 390T202 313H413ZM374 576H254L97 725H277L374 576Z"  />
<glyph unicode="&#xE9;" horiz-adv-x="611" d="M202 218Q204 164 234 132T318 100Q349 100 376 114T415 157H574Q562 112 537 80T477 26T401 -5T316 -15Q253 -15 201 3T111 57T53 144T32 261Q32 321 54 371T114 457T204 513T312 534Q382 534 434 510T520 442T570 342T583 218H202ZM413 313Q411 357 383 388T312 419Q267 419 239 390T202 313H413ZM521 725L364 576H244L341 725H521Z"  />
<glyph unicode="&#xEA;" horiz-adv-x="611" d="M202 218Q204 164 234 132T318 100Q349 100 376 114T415 157H574Q562 112 537 80T477 26T401 -5T316 -15Q253 -15 201 3T111 57T53 144T32 261Q32 321 54 371T114 457T204 513T312 534Q382 534 434 510T520 442T570 342T583 218H202ZM413 313Q411 357 383 388T312 419Q267 419 239 390T202 313H413ZM256 576H128L240 725H392L504 576H376L316 656L256 576Z"  />
<glyph unicode="&#xEB;" horiz-adv-x="611" d="M202 218Q204 164 234 132T318 100Q349 100 376 114T415 157H574Q562 112 537 80T477 26T401 -5T316 -15Q253 -15 201 3T111 57T53 144T32 261Q32 321 54 371T114 457T204 513T312 534Q382 534 434 510T520 442T570 342T583 218H202ZM413 313Q411 357 383 388T312 419Q267 419 239 390T202 313H413ZM131 713H281V588H131V713ZM344 588V713H494V588H344Z"  />
<glyph unicode="&#xEC;" horiz-adv-x="296" d="M63 0V519H233V0H63ZM235 576H115L-42 725H138L235 576Z"  />
<glyph unicode="&#xED;" horiz-adv-x="296" d="M63 0V519H233V0H63ZM340 725L183 576H63L160 725H340Z"  />
<glyph unicode="&#xEE;" horiz-adv-x="296" d="M63 0V519H233V0H63ZM88 576H-40L72 725H224L336 576H208L148 656L88 576Z"  />
<glyph unicode="&#xEF;" horiz-adv-x="296" d="M63 0V519H233V0H63ZM-33 713H117V588H-33V713ZM180 588V713H330V588H180Z"  />
<glyph unicode="&#xF0;" horiz-adv-x="611" d="M213 648Q184 667 158 680T111 700L224 778Q259 766 290 749T337 717L461 785L529 724L410 659Q446 629 477 587T530 496T566 393T579 282Q579 212 559 157T503 64T416 5T305 -15Q245 -15 195 4T108 58T52 140T32 242Q32 297 51 344T104 425T182 479T275 499Q300 499 325 496T372 478L374 480Q359 511 336 539T287 592L159 522L92 582L213 648ZM202 242Q202 222 207 200T224 158T255 127T305 115Q335 115 355 127T387 158T404 199T409 242Q409 262 404 284T387 325T355 356T305 369Q275 369 256 357T224 326T207 285T202 242Z"  />
<glyph unicode="&#xF1;" horiz-adv-x="630" d="M57 519H222V448H224Q236 468 254 484T294 511T340 528T387 534Q452 534 489 513T545 462T569 396T574 333V0H404V251Q404 278 404 303Q404 329 397 349T372 381T319 394Q295 394 278 385T249 360T233 324T227 283V0H57V519ZM505 718Q502 692 494 669T471 629T435 602T386 591Q363 591 343 596T305 609Q287 616 271 621T241 627Q224 627 213 614T197 582H126Q129 606 138 630T163 674T199 706T247 718Q267 718 287 712T327 698Q346 690 363 684T392 677Q409 677 419 688T434 718H505Z"  />
<glyph unicode="&#xF2;" horiz-adv-x="611" d="M32 259Q32 317 52 367T108 455T194 513T305 534Q365 534 415 513T502 455T559 368T579 259Q579 200 559 150T503 64T416 6T305 -15Q245 -15 195 6T108 63T52 150T32 259ZM202 259Q202 234 207 209T224 162T255 128T305 115Q335 115 355 128T387 162T404 208T409 259Q409 284 404 309T387 356T355 390T305 404Q275 404 256 391T224 356T207 310T202 259ZM359 576H239L82 725H262L359 576Z"  />
<glyph unicode="&#xF3;" horiz-adv-x="611" d="M32 259Q32 317 52 367T108 455T194 513T305 534Q365 534 415 513T502 455T559 368T579 259Q579 200 559 150T503 64T416 6T305 -15Q245 -15 195 6T108 63T52 150T32 259ZM202 259Q202 234 207 209T224 162T255 128T305 115Q335 115 355 128T387 162T404 208T409 259Q409 284 404 309T387 356T355 390T305 404Q275 404 256 391T224 356T207 310T202 259ZM507 725L350 576H230L327 725H507Z"  />
<glyph unicode="&#xF4;" horiz-adv-x="611" d="M32 259Q32 317 52 367T108 455T194 513T305 534Q365 534 415 513T502 455T559 368T579 259Q579 200 559 150T503 64T416 6T305 -15Q245 -15 195 6T108 63T52 150T32 259ZM202 259Q202 234 207 209T224 162T255 128T305 115Q335 115 355 128T387 162T404 208T409 259Q409 284 404 309T387 356T355 390T305 404Q275 404 256 391T224 356T207 310T202 259ZM245 576H117L229 725H381L493 576H365L305 656L245 576Z"  />
<glyph unicode="&#xF5;" horiz-adv-x="611" d="M32 259Q32 317 52 367T108 455T194 513T305 534Q365 534 415 513T502 455T559 368T579 259Q579 200 559 150T503 64T416 6T305 -15Q245 -15 195 6T108 63T52 150T32 259ZM202 259Q202 234 207 209T224 162T255 128T305 115Q335 115 355 128T387 162T404 208T409 259Q409 284 404 309T387 356T355 390T305 404Q275 404 256 391T224 356T207 310T202 259ZM494 718Q491 692 483 669T460 629T424 602T375 591Q352 591 332 596T294 609Q276 616 260 621T230 627Q213 627 202 614T186 582H115Q118 606 127 630T152 674T188 706T236 718Q256 718 276 712T316 698Q335 690 352 684T381 677Q398 677 408 688T423 718H494Z"  />
<glyph unicode="&#xF6;" horiz-adv-x="611" d="M32 259Q32 317 52 367T108 455T194 513T305 534Q365 534 415 513T502 455T559 368T579 259Q579 200 559 150T503 64T416 6T305 -15Q245 -15 195 6T108 63T52 150T32 259ZM202 259Q202 234 207 209T224 162T255 128T305 115Q335 115 355 128T387 162T404 208T409 259Q409 284 404 309T387 356T355 390T305 404Q275 404 256 391T224 356T207 310T202 259ZM123 713H273V588H123V713ZM336 588V713H486V588H336Z"  />
<glyph unicode="&#xF7;" horiz-adv-x="600" d="M201 46Q201 88 229 116T300 145Q342 145 370 117T399 46Q399 26 392 8T371 -23T339 -45T300 -53Q279 -53 261 -45T230 -24T209 8T201 46ZM201 460Q201 502 229 530T300 559Q342 559 370 531T399 460Q399 440 392 422T371 391T339 369T300 361Q279 361 261 369T230 390T209 422T201 460ZM48 181V325H552V181H48Z"  />
<glyph unicode="&#xF8;" horiz-adv-x="611" d="M46 -2L105 67Q70 104 51 153T32 259Q32 317 52 367T108 455T194 513T305 534Q397 534 465 486L516 546L560 508L508 448Q543 411 561 363T579 259Q579 200 559 150T503 64T416 6T305 -15Q259 -15 219 -3T146 32L88 -34L46 -2ZM241 141Q264 115 305 115Q335 115 355 128T387 162T404 208T409 259Q409 292 400 324L241 141ZM371 377Q358 390 342 397T305 404Q275 404 256 391T224 356T207 310T202 259Q202 242 204 225T212 192L371 377Z"  />
<glyph unicode="&#xF9;" horiz-adv-x="630" d="M573 0H408V71H406Q382 31 338 8T248 -15Q192 -15 155 0T96 45T65 115T56 207V519H226V218Q226 166 247 146T310 125Q324 125 340 130T370 148T393 184T403 241V519H573V0ZM386 576H266L109 725H289L386 576Z"  />
<glyph unicode="&#xFA;" horiz-adv-x="630" d="M573 0H408V71H406Q382 31 338 8T248 -15Q192 -15 155 0T96 45T65 115T56 207V519H226V218Q226 166 247 146T310 125Q324 125 340 130T370 148T393 184T403 241V519H573V0ZM528 725L371 576H251L348 725H528Z"  />
<glyph unicode="&#xFB;" horiz-adv-x="630" d="M573 0H408V71H406Q382 31 338 8T248 -15Q192 -15 155 0T96 45T65 115T56 207V519H226V218Q226 166 247 146T310 125Q324 125 340 130T370 148T393 184T403 241V519H573V0ZM257 576H129L241 725H393L505 576H377L317 656L257 576Z"  />
<glyph unicode="&#xFC;" horiz-adv-x="630" d="M573 0H408V71H406Q382 31 338 8T248 -15Q192 -15 155 0T96 45T65 115T56 207V519H226V218Q226 166 247 146T310 125Q324 125 340 130T370 148T393 184T403 241V519H573V0ZM134 713H284V588H134V713ZM347 588V713H497V588H347Z"  />
<glyph unicode="&#xFD;" horiz-adv-x="537" d="M340 -46Q325 -89 305 -114T259 -152T200 -170T123 -174H43V-36H102Q131 -36 150 -21T170 22Q170 32 165 51T152 90T138 128T127 158L-7 519H173L271 181H273L371 519H545L340 -46ZM486 725L329 576H209L306 725H486Z"  />
<glyph unicode="&#xFE;" horiz-adv-x="630" d="M325 404Q308 404 290 398T256 375T231 332T221 265Q221 197 243 156T324 115Q352 115 371 128T403 163T420 211T426 265Q426 290 421 314T404 359T373 391T325 404ZM227 462H229Q281 534 377 534Q433 534 474 510T543 446T583 355T596 248Q596 197 583 150T542 66T473 7T377 -15Q282 -15 229 56H227V-174H57V714H227V462Z"  />
<glyph unicode="&#xFF;" horiz-adv-x="537" d="M340 -46Q325 -89 305 -114T259 -152T200 -170T123 -174H43V-36H102Q131 -36 150 -21T170 22Q170 32 165 51T152 90T138 128T127 158L-7 519H173L271 181H273L371 519H545L340 -46ZM89 713H239V588H89V713ZM302 588V713H452V588H302Z"  />
<glyph unicode="&#x131;" horiz-adv-x="296" d="M63 0V519H233V0H63Z"  />
<glyph unicode="&#x152;" horiz-adv-x="1111" d="M396 569Q347 569 314 551T261 503T232 435T223 357Q223 317 231 279T260 211T314 163T396 145Q430 145 456 159T500 196T527 248T536 309V405Q536 436 527 465T500 518T456 555T396 569ZM1059 565H712V440H1029V296H712V160H1067V0H538V45Q522 27 502 16T461 -2T417 -12T376 -15Q296 -15 234 16T127 98T60 217T37 357Q37 429 60 496T127 615T233 698T376 729Q420 729 464 716T536 667H538V714H1059V565Z"  />
<glyph unicode="&#x153;" horiz-adv-x="963" d="M555 218Q554 165 587 133T674 100Q710 100 731 112T768 157H930Q918 113 892 81T831 27T754 -4T667 -15Q614 -15 565 2T481 61Q447 18 397 2T294 -15Q234 -15 186 4T104 59T51 143T32 252Q32 314 51 366T106 455T192 513T306 534Q331 534 357 531T407 518T451 494T488 457Q503 476 523 490T568 514T617 529T666 534Q737 534 788 510T873 442T921 342T935 218H555ZM202 262Q202 235 206 209T223 162T256 128T310 115Q339 115 358 129T388 164T403 210T408 259Q408 283 404 308T390 355T361 390T312 404Q280 404 259 392T226 359T208 314T202 262ZM765 313Q760 360 736 389T661 419Q614 419 585 388T553 313H765Z"  />
<glyph unicode="&#x160;" horiz-adv-x="667" d="M209 240Q212 177 248 153T344 129Q365 129 385 133T422 145T448 168T458 202Q458 226 441 241T394 267T329 286T253 306Q215 317 178 332T111 370T63 428T44 512Q44 570 70 611T139 679T233 717T335 729Q388 729 439 716T531 674T596 603T621 499H435Q436 523 426 539T400 566T362 580T320 585Q305 585 289 582T260 572T239 554T230 524Q230 503 247 490T294 467T361 449T437 430Q476 419 513 404T579 365T626 307T644 224Q644 156 618 110T548 37T448 -3T333 -15Q271 -15 216 -1T117 44T49 123T23 240H209ZM261 762L149 911H277L337 831L397 911H525L413 762H261Z"  />
<glyph unicode="&#x161;" horiz-adv-x="556" d="M189 171Q189 151 196 137T217 113Q229 104 245 100T280 95Q292 95 306 98T332 107T352 124T360 150Q360 165 351 174T330 190T303 199T277 205Q237 215 195 223T117 247T59 293T36 375Q36 422 58 452T116 501T193 526T273 534Q316 534 357 527T433 501T488 450T512 366H355Q355 397 333 411Q313 424 279 424Q268 424 256 423T232 418T214 406T206 385Q206 367 225 355T272 336T335 322T398 310Q437 302 462 285T503 248T524 207T530 170Q530 118 508 83T450 26T370 -5T281 -15Q235 -15 190 -7T110 23T52 81T27 171H189ZM205 576L93 725H221L281 645L341 725H469L357 576H205Z"  />
<glyph unicode="&#x178;" horiz-adv-x="667" d="M427 266V0H241V266L-19 714H192L334 424L476 714H687L427 266ZM154 909H304V784H154V909ZM367 784V909H517V784H367Z"  />
<glyph unicode="&#x17D;" horiz-adv-x="667" d="M24 152L390 554H46V714H630V570L255 160H643V0H24V152ZM260 762L148 911H276L336 831L396 911H524L412 762H260Z"  />
<glyph unicode="&#x17E;" horiz-adv-x="537" d="M22 132L281 389H43V519H497V390L238 130H516V0H22V132ZM196 576L84 725H212L272 645L332 725H460L348 576H196Z"  />
<glyph unicode="&#x192;" horiz-adv-x="630" d="M254 421L280 559Q289 607 307 640T352 692T417 720T501 729Q521 729 540 728T580 726L557 601Q530 604 511 604Q484 604 471 589T449 534L428 421H524L504 311H408L351 6Q341 -46 325 -80T282 -136T218 -165T129 -174Q109 -174 91 -173T52 -171L71 -46Q95 -49 113 -49Q139 -49 154 -37T177 13L234 311H137L157 421H254Z"  />
<glyph unicode="&#x2C6;" horiz-adv-x="296" d="M88 576H-40L72 725H224L336 576H208L148 656L88 576Z"  />
<glyph unicode="&#x2C7;" horiz-adv-x="296" d="M72 576L-40 725H88L148 645L208 725H336L224 576H72Z"  />
<glyph unicode="&#x2DA;" horiz-adv-x="296" d="M148 616Q170 616 185 631T200 668Q200 691 185 705T148 720Q126 720 111 706T96 668Q96 646 111 631T148 616ZM148 564Q126 564 105 571T70 593T48 627T41 668Q41 690 49 710T71 744T106 765T148 772Q170 772 190 765T224 745T247 711T255 668Q255 646 247 627T225 593T190 571T148 564Z"  />
<glyph unicode="&#x2DC;" horiz-adv-x="296" d="M338 718Q335 692 327 669T304 629T268 602T219 591Q196 591 176 596T138 609Q120 616 104 621T74 627Q57 627 46 614T30 582H-41Q-38 606 -29 630T-4 674T32 706T80 718Q100 718 120 712T160 698Q179 690 196 684T225 677Q242 677 252 688T267 718H338Z"  />
<glyph unicode="&#x2013;" horiz-adv-x="500" d="M0 344H500V200H0V344Z"  />
<glyph unicode="&#x2014;" horiz-adv-x="1000" d="M130 344H870V200H130V344Z"  />
<glyph unicode="&#x2018;" horiz-adv-x="296" d="M228 354H69V520Q70 595 108 647T228 714V634Q195 628 175 602T156 540H228V354Z"  />
<glyph unicode="&#x2019;" horiz-adv-x="296" d="M69 714H228V548Q227 473 189 421T69 354V434Q102 440 122 466T141 528H69V714Z"  />
<glyph unicode="&#x201A;" horiz-adv-x="296" d="M69 186H228V20Q227 -55 189 -107T69 -174V-94Q102 -88 122 -62T141 0H69V186Z"  />
<glyph unicode="&#x201C;" horiz-adv-x="500" d="M445 354H286V520Q287 595 325 647T445 714V634Q412 628 392 602T373 540H445V354ZM214 354H55V520Q56 595 94 647T214 714V634Q181 628 161 602T142 540H214V354Z"  />
<glyph unicode="&#x201D;" horiz-adv-x="500" d="M55 714H214V548Q213 473 175 421T55 354V434Q88 440 108 466T127 528H55V714ZM286 714H445V548Q444 473 406 421T286 354V434Q319 440 339 466T358 528H286V714Z"  />
<glyph unicode="&#x201E;" horiz-adv-x="500" d="M55 186H214V20Q213 -55 175 -107T55 -174V-94Q88 -88 108 -62T127 0H55V186ZM286 186H445V20Q444 -55 406 -107T286 -174V-94Q319 -88 339 -62T358 0H286V186Z"  />
<glyph unicode="&#x2020;" horiz-adv-x="630" d="M52 376V520H233V714H397V520H578V376H397V-174H233V376H52Z"  />
<glyph unicode="&#x2021;" horiz-adv-x="630" d="M233 -174V20H51V164H233V376H51V520H233V714H397V520H578V376H397V164H579V20H397V-174H233Z"  />
<glyph unicode="&#x2022;" horiz-adv-x="500" d="M72 357Q72 394 86 426T124 483T180 521T250 535Q287 535 319 521T376 483T415 427T429 357Q429 320 415 288T377 231T320 192T250 178Q213 178 181 192T124 230T86 287T72 357Z"  />
<glyph unicode="&#x2026;" horiz-adv-x="1000" d="M740 0V186H926V0H740ZM407 0V186H593V0H407ZM74 0V186H260V0H74Z"  />
<glyph unicode="&#x2030;" horiz-adv-x="1167" d="M169 532Q169 520 169 503T174 470T188 443T215 431Q232 431 241 442T256 470T262 503T263 532Q263 544 263 561T258 595T244 623T216 635Q199 635 190 624T176 596T170 562T169 532ZM904 157Q904 145 904 128T909 95T923 68T950 56Q967 56 976 67T991 95T997 128T998 157Q998 169 998 186T993 220T979 248T951 260Q934 260 925 249T911 221T905 187T904 157ZM806 157Q806 192 813 223T838 279T883 317T951 331Q993 331 1021 318T1065 281T1089 226T1096 157Q1096 121 1088 90T1063 35T1017 -2T950 -15Q910 -15 883 -2T838 35T814 90T806 157ZM556 157Q556 145 556 128T561 95T575 68T602 56Q619 56 628 67T643 95T649 128T650 157Q650 169 650 186T645 220T631 248T603 260Q586 260 577 249T563 221T557 187T556 157ZM458 157Q458 192 465 223T490 279T535 317T603 331Q645 331 673 318T717 281T741 226T748 157Q748 121 740 90T715 35T669 -2T602 -15Q562 -15 535 -2T490 35T466 90T458 157ZM71 532Q71 567 78 598T103 654T148 692T216 706Q258 706 286 693T330 656T354 601T361 532Q361 496 353 465T328 410T282 373T215 360Q175 360 148 373T103 410T79 465T71 532ZM160 -27L564 724H663L259 -27H160Z"  />
<glyph unicode="&#x2039;" horiz-adv-x="241" d="M41 346L200 474V337L114 270L200 204V67L41 194V346Z"  />
<glyph unicode="&#x203A;" horiz-adv-x="241" d="M200 195L41 67V204L127 271L41 337V474L200 347V195Z"  />
<glyph unicode="&#x20AC;" horiz-adv-x="630" d="M604 656L553 522Q476 571 412 571Q318 571 280 470H531L498 385H264Q263 375 263 367T262 350Q262 347 262 338T264 315H473L437 230H280Q307 123 416 123Q490 123 569 184V30Q499 -8 409 -8Q284 -8 207 68Q141 132 123 230H35L68 315H112V331Q111 336 111 341Q111 347 111 352Q111 362 111 370T113 385H35L68 470H125Q151 574 220 636Q299 706 421 706Q506 706 604 656Z"  />
<glyph unicode="&#x2122;" horiz-adv-x="1000" d="M714 475L803 714H959V302H849V572H847L758 302H670L581 572H579V302H469V714H625L714 475ZM386 619H276V302H151V619H41V714H386V619Z"  />

</font>
</defs>
</svg>
